  0
SECTION
  2
HEADER
  9
$ACADVER
  1
AC1032
  9
$ACADMAINTVER
 90
      197
  9
$DWGCODEPAGE
  3
ANSI_1252
  9
$LASTSAVEDBY
  1
maendli
  9
$REQUIREDVERSIONS
160
                 0
  9
$INSBASE
 10
0.0
 20
0.0
 30
0.0
  9
$EXTMIN
 10
8.189264434426377
 20
9.288418893900654
 30
0.0
  9
$EXTMAX
 10
200.1160130897115
 20
284.2206982274971
 30
0.0
  9
$LIMMIN
 10
0.0
 20
0.0
  9
$LIMMAX
 10
210.0
 20
297.0
  9
$ORTHOMODE
 70
     0
  9
$REGENMODE
 70
     1
  9
$FILLMODE
 70
     1
  9
$QTEXTMODE
 70
     0
  9
$MIRRTEXT
 70
     0
  9
$LTSCALE
 40
1.0
  9
$ATTMODE
 70
     1
  9
$TEXTSIZE
 40
2.5
  9
$TRACEWID
 40
1.0
  9
$TEXTSTYLE
  7
Beschriftung
  9
$CLAYER
  8
0
  9
$CELTYPE
  6
ByLayer
  9
$CECOLOR
 62
   256
  9
$CELTSCALE
 40
1.0
  9
$DISPSILH
 70
     0
  9
$DIMSCALE
 40
0.0
  9
$DIMASZ
 40
2.5
  9
$DIMEXO
 40
0.625
  9
$DIMDLI
 40
3.75
  9
$DIMRND
 40
0.0
  9
$DIMDLE
 40
1.0
  9
$DIMEXE
 40
1.25
  9
$DIMTP
 40
0.0
  9
$DIMTM
 40
0.0
  9
$DIMTXT
 40
2.143
  9
$DIMCEN
 40
2.5
  9
$DIMTSZ
 40
0.0
  9
$DIMTOL
 70
     0
  9
$DIMLIM
 70
     0
  9
$DIMTIH
 70
     0
  9
$DIMTOH
 70
     0
  9
$DIMSE1
 70
     0
  9
$DIMSE2
 70
     0
  9
$DIMTAD
 70
     1
  9
$DIMZIN
 70
     8
  9
$DIMBLK
  1
Oblique
  9
$DIMASO
 70
     1
  9
$DIMSHO
 70
     1
  9
$DIMPOST
  1
cm
  9
$DIMAPOST
  1

  9
$DIMALT
 70
     0
  9
$DIMALTD
 70
     3
  9
$DIMALTF
 40
0.03937007874016
  9
$DIMLFAC
 40
0.1
  9
$DIMTOFL
 70
     1
  9
$DIMTVP
 40
0.0
  9
$DIMTIX
 70
     0
  9
$DIMSOXD
 70
     0
  9
$DIMSAH
 70
     0
  9
$DIMBLK1
  1

  9
$DIMBLK2
  1

  9
$DIMSTYLE
  2
ZZWancor_cm
  9
$DIMCLRD
 70
     0
  9
$DIMCLRE
 70
     0
  9
$DIMCLRT
 70
     0
  9
$DIMTFAC
 40
1.0
  9
$DIMGAP
 40
0.625
  9
$DIMJUST
 70
     0
  9
$DIMSD1
 70
     0
  9
$DIMSD2
 70
     0
  9
$DIMTOLJ
 70
     0
  9
$DIMTZIN
 70
     8
  9
$DIMALTZ
 70
     0
  9
$DIMALTTZ
 70
     0
  9
$DIMUPT
 70
     0
  9
$DIMDEC
 70
     2
  9
$DIMTDEC
 70
     2
  9
$DIMALTU
 70
     2
  9
$DIMALTTD
 70
     3
  9
$DIMTXSTY
  7
Standard
  9
$DIMAUNIT
 70
     0
  9
$DIMADEC
 70
     0
  9
$DIMALTRND
 40
0.0
  9
$DIMAZIN
 70
     0
  9
$DIMDSEP
 70
    44
  9
$DIMATFIT
 70
     3
  9
$DIMFRAC
 70
     0
  9
$DIMLDRBLK
  1

  9
$DIMLUNIT
 70
     2
  9
$DIMLWD
 70
    -2
  9
$DIMLWE
 70
    -2
  9
$DIMTMOVE
 70
     0
  9
$DIMFXL
 40
1.0
  9
$DIMFXLON
 70
     0
  9
$DIMJOGANG
 40
0.7853981633974483
  9
$DIMTFILL
 70
     0
  9
$DIMTFILLCLR
 70
     0
  9
$DIMARCSYM
 70
     0
  9
$DIMLTYPE
  6

  9
$DIMLTEX1
  6

  9
$DIMLTEX2
  6

  9
$DIMTXTDIRECTION
 70
     0
  9
$LUNITS
 70
     2
  9
$LUPREC
 70
     4
  9
$SKETCHINC
 40
1.0
  9
$FILLETRAD
 40
0.0
  9
$AUNITS
 70
     0
  9
$AUPREC
 70
     0
  9
$MENU
  1
.
  9
$ELEVATION
 40
0.0
  9
$PELEVATION
 40
0.0
  9
$THICKNESS
 40
0.0
  9
$LIMCHECK
 70
     0
  9
$CHAMFERA
 40
0.0
  9
$CHAMFERB
 40
0.0
  9
$CHAMFERC
 40
0.0
  9
$CHAMFERD
 40
0.0
  9
$SKPOLY
 70
     0
  9
$TDCREATE
 40
2459482.459398148
  9
$TDUCREATE
 40
2459482.376064815
  9
$TDUPDATE
 40
2459503.506770833
  9
$TDUUPDATE
 40
2459503.423437500
  9
$TDINDWG
 40
0.0133912037
  9
$TDUSRTIMER
 40
0.0133912037
  9
$USRTIMER
 70
     1
  9
$ANGBASE
 50
0.0
  9
$ANGDIR
 70
     0
  9
$PDMODE
 70
     0
  9
$PDSIZE
 40
0.0
  9
$PLINEWID
 40
0.0
  9
$SPLFRAME
 70
     0
  9
$SPLINETYPE
 70
     6
  9
$SPLINESEGS
 70
     8
  9
$HANDSEED
  5
33D
  9
$SURFTAB1
 70
     6
  9
$SURFTAB2
 70
     6
  9
$SURFTYPE
 70
     6
  9
$SURFU
 70
     6
  9
$SURFV
 70
     6
  9
$UCSBASE
  2

  9
$UCSNAME
  2

  9
$UCSORG
 10
0.0
 20
0.0
 30
0.0
  9
$UCSXDIR
 10
1.0
 20
0.0
 30
0.0
  9
$UCSYDIR
 10
0.0
 20
1.0
 30
0.0
  9
$UCSORTHOREF
  2

  9
$UCSORTHOVIEW
 70
     0
  9
$UCSORGTOP
 10
0.0
 20
0.0
 30
0.0
  9
$UCSORGBOTTOM
 10
0.0
 20
0.0
 30
0.0
  9
$UCSORGLEFT
 10
0.0
 20
0.0
 30
0.0
  9
$UCSORGRIGHT
 10
0.0
 20
0.0
 30
0.0
  9
$UCSORGFRONT
 10
0.0
 20
0.0
 30
0.0
  9
$UCSORGBACK
 10
0.0
 20
0.0
 30
0.0
  9
$PUCSBASE
  2

  9
$PUCSNAME
  2

  9
$PUCSORG
 10
0.0
 20
0.0
 30
0.0
  9
$PUCSXDIR
 10
1.0
 20
0.0
 30
0.0
  9
$PUCSYDIR
 10
0.0
 20
1.0
 30
0.0
  9
$PUCSORTHOREF
  2

  9
$PUCSORTHOVIEW
 70
     0
  9
$PUCSORGTOP
 10
0.0
 20
0.0
 30
0.0
  9
$PUCSORGBOTTOM
 10
0.0
 20
0.0
 30
0.0
  9
$PUCSORGLEFT
 10
0.0
 20
0.0
 30
0.0
  9
$PUCSORGRIGHT
 10
0.0
 20
0.0
 30
0.0
  9
$PUCSORGFRONT
 10
0.0
 20
0.0
 30
0.0
  9
$PUCSORGBACK
 10
0.0
 20
0.0
 30
0.0
  9
$USERI1
 70
     0
  9
$USERI2
 70
     0
  9
$USERI3
 70
     0
  9
$USERI4
 70
     0
  9
$USERI5
 70
     0
  9
$USERR1
 40
0.0
  9
$USERR2
 40
0.0
  9
$USERR3
 40
0.0
  9
$USERR4
 40
0.0
  9
$USERR5
 40
0.0
  9
$WORLDVIEW
 70
     1
  9
$SHADEDGE
 70
     3
  9
$SHADEDIF
 70
    70
  9
$TILEMODE
 70
     1
  9
$MAXACTVP
 70
    64
  9
$PINSBASE
 10
0.0
 20
0.0
 30
0.0
  9
$PLIMCHECK
 70
     0
  9
$PEXTMIN
 10
1.000000000000000E+20
 20
1.000000000000000E+20
 30
1.000000000000000E+20
  9
$PEXTMAX
 10
-1.000000000000000E+20
 20
-1.000000000000000E+20
 30
-1.000000000000000E+20
  9
$PLIMMIN
 10
0.0
 20
0.0
  9
$PLIMMAX
 10
12.0
 20
9.0
  9
$UNITMODE
 70
     0
  9
$VISRETAIN
 70
     1
  9
$PLINEGEN
 70
     0
  9
$PSLTSCALE
 70
     1
  9
$TREEDEPTH
 70
  3020
  9
$CMLSTYLE
  2
Standard
  9
$CMLJUST
 70
     0
  9
$CMLSCALE
 40
20.0
  9
$PROXYGRAPHICS
 70
     1
  9
$MEASUREMENT
 70
     1
  9
$CELWEIGHT
370
    -1
  9
$ENDCAPS
280
     0
  9
$JOINSTYLE
280
     0
  9
$LWDISPLAY
290
     0
  9
$INSUNITS
 70
     4
  9
$HYPERLINKBASE
  1

  9
$STYLESHEET
  1

  9
$XEDIT
290
     1
  9
$CEPSNTYPE
380
     0
  9
$PSTYLEMODE
290
     1
  9
$FINGERPRINTGUID
  2
{90D92BCC-4FC0-A342-8BB2-F05D2E1A86E2}
  9
$VERSIONGUID
  2
{5124352C-F6EA-FD43-BA7E-25EA6B561CD2}
  9
$EXTNAMES
290
     1
  9
$PSVPSCALE
 40
0.0
  9
$OLESTARTUP
290
     0
  9
$SORTENTS
280
   127
  9
$INDEXCTL
280
     0
  9
$HIDETEXT
280
     1
  9
$XCLIPFRAME
280
     2
  9
$HALOGAP
280
     0
  9
$OBSCOLOR
 70
   257
  9
$OBSLTYPE
280
     0
  9
$INTERSECTIONDISPLAY
280
     0
  9
$INTERSECTIONCOLOR
 70
   257
  9
$DIMASSOC
280
     2
  9
$PROJECTNAME
  1

  9
$CAMERADISPLAY
290
     0
  9
$LENSLENGTH
 40
50.0
  9
$CAMERAHEIGHT
 40
0.0
  9
$STEPSPERSEC
 40
2.0
  9
$STEPSIZE
 40
6.0
  9
$3DDWFPREC
 40
2.0
  9
$PSOLWIDTH
 40
5.0
  9
$PSOLHEIGHT
 40
80.0
  9
$LOFTANG1
 40
1.570796326794896
  9
$LOFTANG2
 40
1.570796326794896
  9
$LOFTMAG1
 40
0.0
  9
$LOFTMAG2
 40
0.0
  9
$LOFTPARAM
 70
     7
  9
$LOFTNORMALS
280
     1
  9
$LATITUDE
 40
37.795
  9
$LONGITUDE
 40
-122.394
  9
$NORTHDIRECTION
 40
0.0
  9
$TIMEZONE
 70
 -8000
  9
$LIGHTGLYPHDISPLAY
280
     1
  9
$TILEMODELIGHTSYNCH
280
     1
  9
$CMATERIAL
347
11
  9
$SOLIDHIST
280
     0
  9
$SHOWHIST
280
     1
  9
$DWFFRAME
280
     2
  9
$DGNFRAME
280
     0
  9
$REALWORLDSCALE
290
     1
  9
$INTERFERECOLOR
 62
     1
  9
$INTERFEREOBJVS
345
33
  9
$INTERFEREVPVS
346
30
  9
$CSHADOW
280
     0
  9
$SHADOWPLANELOCATION
 40
0.0
  0
ENDSEC
  0
SECTION
  2
CLASSES
  0
CLASS
  1
ACDBDICTIONARYWDFLT
  2
AcDbDictionaryWithDefault
  3
ObjectDBX Classes
 90
        0
 91
        1
280
     0
281
     0
  0
CLASS
  1
MATERIAL
  2
AcDbMaterial
  3
ObjectDBX Classes
 90
     1153
 91
        3
280
     0
281
     0
  0
CLASS
  1
VISUALSTYLE
  2
AcDbVisualStyle
  3
ObjectDBX Classes
 90
     4095
 91
       24
280
     0
281
     0
  0
CLASS
  1
SCALE
  2
AcDbScale
  3
ObjectDBX Classes
 90
     1153
 91
       18
280
     0
281
     0
  0
CLASS
  1
TABLESTYLE
  2
AcDbTableStyle
  3
ObjectDBX Classes
 90
     4095
 91
        1
280
     0
281
     0
  0
CLASS
  1
MLEADERSTYLE
  2
AcDbMLeaderStyle
  3
ACDB_MLEADERSTYLE_CLASS
 90
     4095
 91
        1
280
     0
281
     0
  0
CLASS
  1
ACDBSECTIONVIEWSTYLE
  2
AcDbSectionViewStyle
  3
ObjectDBX Classes
 90
     1025
 91
        2
280
     0
281
     0
  0
CLASS
  1
ACDBDETAILVIEWSTYLE
  2
AcDbDetailViewStyle
  3
ObjectDBX Classes
 90
     1025
 91
        2
280
     0
281
     0
  0
CLASS
  1
DIMASSOC
  2
AcDbDimAssoc
  3
"AcDbDimAssoc|Product Desc:     AcDim ARX App For Dimension|Company:          Autodesk, Inc.|WEB Address:      www.autodesk.com"
 90
        0
 91
        4
280
     0
281
     0
  0
CLASS
  1
ACDB_ALDIMOBJECTCONTEXTDATA_CLASS
  2
AcDbAlignedDimensionObjectContextData
  3
ObjectDBX Classes
 90
     1153
 91
        0
280
     0
281
     0
  0
CLASS
  1
SORTENTSTABLE
  2
AcDbSortentsTable
  3
ObjectDBX Classes
 90
        0
 91
        1
280
     0
281
     0
  0
CLASS
  1
DICTIONARYVAR
  2
AcDbDictionaryVar
  3
ObjectDBX Classes
 90
        0
 91
        6
280
     0
281
     0
  0
CLASS
  1
CELLSTYLEMAP
  2
AcDbCellStyleMap
  3
ObjectDBX Classes
 90
     1152
 91
        1
280
     0
281
     0
  0
ENDSEC
  0
SECTION
  2
TABLES
  0
TABLE
  2
VPORT
  5
8
330
0
100
AcDbSymbolTable
 70
     1
  0
VPORT
  5
57
330
8
100
AcDbSymbolTableRecord
100
AcDbViewportTableRecord
  2
*Active
 70
     0
 10
0.0
 20
0.0
 11
1.0
 21
1.0
 12
193.6604861149243
 22
160.1686432204559
 13
0.0
 23
0.0
 14
10.0
 24
10.0
 15
10.0
 25
10.0
 16
0.0
 26
0.0
 36
1.0
 17
0.0
 27
0.0
 37
0.0
 40
285.1028718575242
 41
1.989071038251365
 42
50.0
 43
0.0
 44
0.0
 50
0.0
 51
0.0
 71
     0
 72
  1000
 73
     1
 74
     1
 75
     0
 76
     0
 77
     0
 78
     0
281
     0
 65
     1
110
0.0
120
0.0
130
0.0
111
1.0
121
0.0
131
0.0
112
0.0
122
1.0
132
0.0
 79
     0
146
0.0
348
2F
 60
     3
 61
     5
292
     1
282
     1
141
0.0
142
0.0
 63
   250
421
  3355443
1001
ACAD_NAV_VCDISPLAY
1070
     3
  0
ENDTAB
  0
TABLE
  2
LTYPE
  5
5
330
0
100
AcDbSymbolTable
 70
     1
  0
LTYPE
  5
5B
330
5
100
AcDbSymbolTableRecord
100
AcDbLinetypeTableRecord
  2
ByBlock
 70
     0
  3

 72
    65
 73
     0
 40
0.0
  0
LTYPE
  5
5C
330
5
100
AcDbSymbolTableRecord
100
AcDbLinetypeTableRecord
  2
ByLayer
 70
     0
  3

 72
    65
 73
     0
 40
0.0
  0
LTYPE
  5
5D
330
5
100
AcDbSymbolTableRecord
100
AcDbLinetypeTableRecord
  2
Continuous
 70
     0
  3
Solid line
 72
    65
 73
     0
 40
0.0
  0
ENDTAB
  0
TABLE
  2
LAYER
  5
2
102
{ACAD_XDICTIONARY
360
332
102
}
330
0
100
AcDbSymbolTable
 70
     7
  0
LAYER
  5
54
330
2
100
AcDbSymbolTableRecord
100
AcDbLayerTableRecord
  2
0
 70
     0
 62
     7
  6
Continuous
370
    -3
390
F
347
21
348
0
1001
AcAecLayerStandard
1000

1000

  0
LAYER
  5
79
330
2
100
AcDbSymbolTableRecord
100
AcDbLayerTableRecord
  2
Defpoints
 70
     0
 62
     7
  6
Continuous
290
     0
370
    -3
390
F
347
21
348
0
1001
AcAecLayerStandard
1000

1000

  0
LAYER
  5
8D
330
2
100
AcDbSymbolTableRecord
100
AcDbLayerTableRecord
  2
Linie_dünn
 70
     0
 62
     4
  6
Continuous
370
    25
390
F
347
21
348
0
1001
AcAecLayerStandard
1000

1000

1001
AcCmTransparency
1071
        0
  0
LAYER
  5
92
330
2
100
AcDbSymbolTableRecord
100
AcDbLayerTableRecord
  2
Linie_dick
 70
     0
 62
     3
  6
Continuous
370
    25
390
F
347
21
348
0
1001
AcAecLayerStandard
1000

1000

1001
AcCmTransparency
1071
        0
  0
LAYER
  5
9C
330
2
100
AcDbSymbolTableRecord
100
AcDbLayerTableRecord
  2
Linie_Farbig
 70
     0
 62
    10
  6
Continuous
370
    13
390
F
347
21
348
0
1001
AcAecLayerStandard
1000

1000

1001
AcCmTransparency
1071
        0
  0
LAYER
  5
A5
330
2
100
AcDbSymbolTableRecord
100
AcDbLayerTableRecord
  2
Schraffur
 70
     0
 62
   190
  6
Continuous
370
    13
390
F
347
21
348
0
1001
AcAecLayerStandard
1000

1000

1001
AcCmTransparency
1071
        0
  0
LAYER
  5
10B
330
2
100
AcDbSymbolTableRecord
100
AcDbLayerTableRecord
  2
Bemassung
 70
     0
 62
    11
  6
Continuous
370
    13
390
F
347
21
348
0
1001
AcAecLayerStandard
1000

1000

1001
AcCmTransparency
1071
        0
  0
ENDTAB
  0
TABLE
  2
STYLE
  5
3
330
0
100
AcDbSymbolTable
 70
     3
  0
STYLE
  5
55
330
3
100
AcDbSymbolTableRecord
100
AcDbTextStyleTableRecord
  2
Standard
 70
     0
 40
0.0
 41
1.0
 50
0.0
 71
     0
 42
2.5
  3
arial.ttf
  4

1001
ACAD
1000
Arial
1071
       34
  0
STYLE
  5
5A
330
3
100
AcDbSymbolTableRecord
100
AcDbTextStyleTableRecord
  2
Annotative
 70
     0
 40
0.0
 41
1.0
 50
0.0
 71
     0
 42
0.2
  3
txt
  4

1001
AcadAnnotative
1000
AnnotativeData
1002
{
1070
     1
1070
     1
1002
}
  0
STYLE
  5
7A
330
3
100
AcDbSymbolTableRecord
100
AcDbTextStyleTableRecord
  2
Beschriftung
 70
     0
 40
0.0
 41
1.0
 50
0.0
 71
     0
 42
2.5
  3
arial.ttf
  4

1001
AcadAnnotative
1000
AnnotativeData
1002
{
1070
     1
1070
     1
1002
}
1001
ACAD
1000
Arial
1071
       34
  0
ENDTAB
  0
TABLE
  2
VIEW
  5
6
330
0
100
AcDbSymbolTable
 70
     1
  0
ENDTAB
  0
TABLE
  2
UCS
  5
7
330
0
100
AcDbSymbolTable
 70
     0
  0
ENDTAB
  0
TABLE
  2
APPID
  5
9
330
0
100
AcDbSymbolTable
 70
    13
  0
APPID
  5
56
330
9
100
AcDbSymbolTableRecord
100
AcDbRegAppTableRecord
  2
ACAD
 70
     0
  0
APPID
  5
5E
330
9
100
AcDbSymbolTableRecord
100
AcDbRegAppTableRecord
  2
AcadAnnotative
 70
     0
  0
APPID
  5
78
330
9
100
AcDbSymbolTableRecord
100
AcDbRegAppTableRecord
  2
ACAD_PSEXT
 70
     0
  0
APPID
  5
7D
330
9
100
AcDbSymbolTableRecord
100
AcDbRegAppTableRecord
  2
ACAD_DSTYLE_DIMJAG
 70
     0
  0
APPID
  5
7E
330
9
100
AcDbSymbolTableRecord
100
AcDbRegAppTableRecord
  2
ACAD_DSTYLE_DIMTALN
 70
     0
  0
APPID
  5
85
330
9
100
AcDbSymbolTableRecord
100
AcDbRegAppTableRecord
  2
ACAD_DSTYLE_DIMBREAK
 70
     0
  0
APPID
  5
8E
330
9
100
AcDbSymbolTableRecord
100
AcDbRegAppTableRecord
  2
AcAecLayerStandard
 70
     0
  0
APPID
  5
8F
330
9
100
AcDbSymbolTableRecord
100
AcDbRegAppTableRecord
  2
AcCmTransparency
 70
     0
  0
APPID
  5
95
330
9
100
AcDbSymbolTableRecord
100
AcDbRegAppTableRecord
  2
AcDbDynamicBlockGUID
 70
     0
  0
APPID
  5
CD
330
9
100
AcDbSymbolTableRecord
100
AcDbRegAppTableRecord
  2
GradientColor1ACI
 70
     0
  0
APPID
  5
CE
330
9
100
AcDbSymbolTableRecord
100
AcDbRegAppTableRecord
  2
GradientColor2ACI
 70
     0
  0
APPID
  5
186
330
9
100
AcDbSymbolTableRecord
100
AcDbRegAppTableRecord
  2
Acad_TC
 70
     0
  0
APPID
  5
338
330
9
100
AcDbSymbolTableRecord
100
AcDbRegAppTableRecord
  2
ACAD_NAV_VCDISPLAY
 70
     0
  0
ENDTAB
  0
TABLE
  2
DIMSTYLE
  5
A
330
0
100
AcDbSymbolTable
 70
     5
100
AcDbDimStyleTable
 71
     1
340
80
  0
DIMSTYLE
105
58
330
A
100
AcDbSymbolTableRecord
100
AcDbDimStyleTableRecord
  2
Standard
 70
     0
340
55
  0
DIMSTYLE
105
59
330
A
100
AcDbSymbolTableRecord
100
AcDbDimStyleTableRecord
  2
Annotative
 70
     0
340
55
1001
AcadAnnotative
1000
AnnotativeData
1002
{
1070
     1
1070
     1
1002
}
  0
DIMSTYLE
105
7C
330
A
100
AcDbSymbolTableRecord
100
AcDbDimStyleTableRecord
  2
Beschriftung
 70
     0
 40
0.0
 41
2.5
 42
0.625
 43
3.75
 44
1.25
 73
     0
 74
     0
 77
     1
 78
     8
140
2.5
141
2.5
143
0.03937007874016
147
0.625
171
     3
172
     1
271
     2
272
     2
274
     3
278
    44
283
     0
284
     8
340
55
1001
AcadAnnotative
1000
AnnotativeData
1002
{
1070
     1
1070
     1
1002
}
1001
ACAD_DSTYLE_DIMJAG
1070
   388
1040
1.5
1001
ACAD_DSTYLE_DIMTALN
1070
   392
1070
     0
  0
DIMSTYLE
105
7F
330
A
100
AcDbSymbolTableRecord
100
AcDbDimStyleTableRecord
  2
ISO-25
 70
     0
 41
2.5
 42
0.625
 43
3.75
 44
1.25
 73
     0
 74
     0
 77
     1
 78
     8
140
2.5
141
2.5
143
0.03937007874016
147
0.625
171
     3
172
     1
271
     2
272
     2
274
     3
278
    44
283
     0
284
     8
340
55
  0
DIMSTYLE
105
80
102
{ACAD_REACTORS
330
11A
330
12C
330
13D
330
14E
330
15F
330
172
330
107
102
}
330
A
100
AcDbSymbolTableRecord
100
AcDbDimStyleTableRecord
  2
ZZWancor_cm
 70
     0
  3
cm
 40
0.0
 41
2.5
 42
0.625
 43
3.75
 44
1.25
 46
1.0
 73
     0
 74
     0
 77
     1
 78
     8
140
2.143
141
2.5
143
0.03937007874016
144
0.1
147
0.625
171
     3
172
     1
271
     2
272
     2
274
     3
278
    44
283
     0
284
     8
340
55
342
81
1001
ACAD_DSTYLE_DIMBREAK
1070
   391
1040
3.75
1001
AcadAnnotative
1000
AnnotativeData
1002
{
1070
     1
1070
     1
1002
}
1001
ACAD_DSTYLE_DIMJAG
1070
   388
1040
1.5
1001
ACAD_DSTYLE_DIMTALN
1070
   392
1070
     0
  0
ENDTAB
  0
TABLE
  2
BLOCK_RECORD
  5
1
330
0
100
AcDbSymbolTable
 70
    17
  0
BLOCK_RECORD
  5
70
102
{ACAD_XDICTIONARY
360
29D
102
}
330
1
100
AcDbSymbolTableRecord
100
AcDbBlockTableRecord
  2
*Model_Space
340
73
 70
     0
280
     1
281
     0
  0
BLOCK_RECORD
  5
6C
330
1
100
AcDbSymbolTableRecord
100
AcDbBlockTableRecord
  2
*Paper_Space
340
6F
 70
     0
280
     1
281
     0
  0
BLOCK_RECORD
  5
74
330
1
100
AcDbSymbolTableRecord
100
AcDbBlockTableRecord
  2
*Paper_Space0
340
77
 70
     0
280
     1
281
     0
  0
BLOCK_RECORD
  5
81
330
1
100
AcDbSymbolTableRecord
100
AcDbBlockTableRecord
  2
_Oblique
340
0
102
{BLKREFS
331
2AB
331
2AC
331
2F2
331
2F3
331
2FB
331
2FC
331
304
331
305
331
30D
331
30E
331
317
331
318
331
329
331
32A
102
}
 70
     0
280
     1
281
     0
  0
BLOCK_RECORD
  5
89
102
{ACAD_XDICTIONARY
360
8A
102
}
330
1
100
AcDbSymbolTableRecord
100
AcDbBlockTableRecord
  2
Wand
340
0
310
28000000280000002800000001002000000000000019000001000000010000000000000000000000302821FF302821FF302821FF302821FF302821FF302821FF302821FF302821FF302821FF302821FF302821FF302821FF302821FF302821FF302821FF302821FF302821FF302821FF302821FF302821FF302821FF302821
310
FF302821FF302821FF302821FF302821FF302821FF302821FF302821FF302821FF302821FF302821FF302821FF302821FF302821FF302821FF302821FF302821FF302821FF302821FF302821FF302821FF302821FF302821FF302821FF302821FF302821FF302821FF302821FF302821FF302821FF302821FF302821FF3028
310
21FF302821FF302821FF302821FF302821FF302821FF302821FF302821FF302821FF302821FF302821FF302821FF302821FF302821FF302821FF302821FF302821FF302821FF302821FF302821FF302821FF302821FF302821FF302821FF302821FF302821FF302821FF302821FF302821FF302821FF302821FF302821FF30
310
2821FF302821FF302821FF302821FF302821FF302821FF302821FF302821FF302821FF302821FF302821FF302821FF302821FF302821FF302821FF302821FF302821FF302821FF302821FF302821FF302821FF302821FF302821FF302821FF302821FF302821FF302821FF302821FF302821FF302821FF302821FF302821FF
310
302821FF302821FF302821FF302821FF302821FF302821FF302821FF302821FF302821FF302821FF302821FF302821FF302821FF302821FF302821FF302821FF302821FF302821FF302821FF302821FF302821FF302821FF302821FF302821FF302821FF302821FF302821FF302821FF302821FF302821FF302821FF302821
310
FF302821FF302821FF302821FF302821FF302821FF302821FF302821FF302821FF302821FF302821FF302821FF302821FF302821FF302821FF302821FF302821FF302821FF302821FF302821FF302821FF302821FF302821FF302821FF302821FF302821FF302821FF302821FF302821FF302821FF302821FF302821FF3028
310
21FF302821FF302821FF302821FF302821FF302821FF302821FF302821FF302821FF302821FF302821FF302821FF302821FF302821FF302821FF302821FF302821FF302821FF302821FF302821FF302821FF302821FF302821FF302821FF302821FF302821FF302821FF302821FF302821FF302821FF302821FF302821FF30
310
2821FF302821FF302821FF302821FF302821FF302821FF302821FF302821FF302821FF302821FF302821FF302821FF302821FF302821FF302821FF302821FF302821FF302821FF302821FF302821FF302821FF302821FF302821FF302821FF302821FF302821FF302821FF302821FF302821FF302821FF302821FF302821FF
310
302821FF302821FF302821FF302821FF302821FF302821FF302821FF302821FF302821FF302821FF302821FF302821FF302821FF302821FF302821FF302821FF302821FF302821FF302821FF302821FF302821FF302821FF302821FF302821FF302821FF302821FF302821FF302821FF302821FF302821FF302821FF302821
310
FF302821FF302821FF302821FF302821FF302821FF302821FF302821FF302821FF302821FF302821FF302821FF302821FF302821FF302821FF302821FF302821FF302821FF302821FF302821FF302821FF302821FF302821FF302821FF302821FF302821FF302821FF302821FF302821FF302821FF302821FF302821FF3028
310
21FF302821FF302821FF302821FF302821FF302821FF302821FF302821FF302821FF302821FF302821FF302821FF302821FF302821FF302821FF302821FF302821FF302821FF302821FF302821FF302821FF302821FF302821FF302821FF302821FF302821FF302821FF302821FF302821FF302821FF302821FF302821FF30
310
2821FF302821FF302821FF302821FF302821FF302821FF302821FF302821FF302821FF302821FF302821FF302821FF302821FF302821FF302821FF302821FF302821FF302821FF302821FF302821FF302821FF302821FF302821FF302821FF302821FF302821FF302821FF302821FF302821FF302821FF302821FF302821FF
310
302821FF302821FF302821FF302821FF302821FF302821FF302821FF302821FF302821FF302821FF302821FF302821FF302821FF302821FF302821FF302821FF302821FF302821FF302821FF302821FF302821FF302821FF302821FF302821FF302821FF302821FF302821FF302821FF302821FF302821FF302821FFFFFF00
310
FFFFFF00FFFFFF00FFFFFF00FFFFFF00FFFFFF00FFFFFF00FFFFFF00FFFFFF00FF302821FF302821FF302821FF302821FF302821FF302821FF302821FF302821FF302821FF302821FF302821FF302821FF302821FF302821FF302821FF302821FF302821FF302821FF302821FF302821FF302821FF302821FF302821FF3028
310
21FF302821FF302821FF302821FF302821FF302821FF302821FF302821FFFFFF00FF00FF00FFFFFF00FFFFFF00FFFFFF00FFFFFF00FFFFFF00FFFFFF00FFFFFF00FFFFFF00FFFFFF00FFFFFF00FFFFFF00FFFFFF00FFFFFF00FFFFFF00FFFFFF00FFFFFF00FFFFFF00FFFFFF00FFFFFF00FFFFFF00FFFFFF00FFFFFF00FFFF
310
FF00FFFFFF00FFFFFF00FF302821FF302821FF302821FF302821FF302821FF302821FF302821FF302821FF302821FF302821FF302821FF302821FF302821FF302821FF00FF00FF302821FF302821FFFFFFFFFF302821FF302821FF302821FFFFFFFFFF302821FF302821FFFFFFFFFF302821FF302821FF302821FFFFFFFFFF
310
302821FF302821FFFFFF00FFFFFF00FFFFFF00FFFFFF00FFFFFF00FFFFFF00FFFFFF00FFFFFF00FFFFFF00FFFFFF00FFFFFF00FFFFFF00FFFFFF00FFFFFF00FFFFFF00FFFFFF00FF00FF00FFFFFF00FF302821FF302821FF302821FF302821FF302821FF00FF00FFFFFFFFFF302821FF302821FFFFFFFFFFFFFFFFFF302821
310
FF302821FFFFFFFFFF302821FF302821FFFFFFFFFFFFFFFFFF302821FF302821FFFFFFFFFF302821FF302821FFFFFFFFFF302821FF302821FFFFFFFFFFFFFFFFFF302821FF302821FFFFFFFFFF302821FF302821FFFFFFFFFFFFFFFFFF302821FF302821FFFFFFFFFF00FF00FF302821FF302821FF302821FF302821FF3028
310
21FF302821FF00FF00FF00FF00FF00FF00FF00FF00FF00FF00FF00FF00FF00FF00FF00FF00FF00FF00FF00FF00FF00FF00FF00FF00FF00FF00FF00FF00FF00FF00FF00FF00FF00FF00FF00FF00FF00FF00FF00FF00FF00FF00FF00FF00FF00FF00FF00FF00FF00FF00FF00FF00FF00FF00FF00FF00FF00FF00FF00FF00FF00
310
FF00FF00FF00FF00FF00FF00FF00FF302821FF302821FF302821FF302821FF302821FF302821FF00FF00FF302821FF302821FFFFFFFFFF302821FF302821FF302821FFFFFFFFFF302821FF302821FFFFFFFFFF302821FF302821FF302821FFFFFFFFFF302821FF302821FFFFFFFFFF302821FF302821FFFFFFFFFF302821FF
310
302821FF302821FFFFFFFFFF302821FF302821FFFFFFFFFF302821FF302821FF302821FFFFFFFFFF302821FF00FF00FF302821FF302821FF302821FF302821FF302821FF302821FF00FF00FF302821FF302821FF302821FFFFFFFFFF302821FF302821FF302821FFFFFFFFFF302821FF302821FFFFFFFFFF302821FF302821
310
FF302821FFFFFFFFFF302821FF302821FFFFFFFFFF302821FF302821FFFFFFFFFF302821FF302821FF302821FFFFFFFFFF302821FF302821FFFFFFFFFF302821FF302821FF302821FFFFFFFFFF00FF00FF302821FF302821FF302821FF302821FF302821FF302821FF00FF00FFFFFFFFFF302821FF302821FF302821FFFFFF
310
FFFF302821FF302821FF302821FFFFFFFFFF302821FF302821FFFFFFFFFF302821FF302821FF302821FFFFFFFFFF302821FF302821FFFFFFFFFF302821FF302821FFFFFFFFFF302821FF302821FF302821FFFFFFFFFF302821FF302821FFFFFFFFFF302821FF302821FF302821FF00FF00FF302821FF302821FF302821FF30
310
2821FF302821FF302821FF00FF00FF302821FFFFFFFFFF302821FF302821FF302821FFFFFFFFFF302821FF302821FF302821FFFFFFFFFF302821FF302821FFFFFFFFFF302821FF302821FF302821FFFFFFFFFF302821FF302821FFFFFFFFFF302821FF302821FFFFFFFFFF302821FF302821FF302821FFFFFFFFFF302821FF
310
302821FFFFFFFFFF302821FF302821FF00FF00FF302821FF302821FF302821FF302821FF302821FF302821FF00FF00FF302821FF302821FFFFFFFFFF302821FF302821FF302821FFFFFFFFFF302821FF302821FF302821FFFFFFFFFF302821FF302821FFFFFFFFFF302821FF302821FF302821FFFFFFFFFF302821FF302821
310
FFFFFFFFFF302821FF302821FFFFFFFFFF302821FF302821FF302821FFFFFFFFFF302821FF302821FFFFFFFFFF302821FF00FF00FF302821FF302821FF302821FF302821FF302821FF302821FF00FF00FFFFFFFFFF302821FF302821FFFFFFFFFF302821FF302821FF302821FFFFFFFFFF302821FF302821FF302821FFFFFF
310
FFFF302821FF302821FFFFFFFFFF302821FF302821FF302821FFFFFFFFFF302821FF302821FFFFFFFFFF302821FF302821FFFFFFFFFF302821FF302821FF302821FFFFFFFFFF302821FF302821FFFFFFFFFF00FF00FF302821FF302821FF302821FF302821FF302821FF302821FF00FF00FF302821FFFFFFFFFF302821FF30
310
2821FFFFFFFFFF302821FF302821FF302821FFFFFFFFFF302821FF302821FF302821FFFFFFFFFF302821FF302821FFFFFFFFFF302821FF302821FF302821FFFFFFFFFF302821FF302821FFFFFFFFFF302821FF302821FFFFFFFFFF302821FF302821FF302821FFFFFFFFFF302821FF302821FF00FF00FF302821FF302821FF
310
302821FF302821FF302821FF302821FF00FF00FF302821FF302821FFFFFFFFFF302821FF302821FFFFFFFFFF302821FF302821FFFFFFFFFF302821FF302821FF302821FFFFFFFFFF302821FF302821FFFFFFFFFF302821FF302821FF302821FFFFFFFFFF302821FF302821FFFFFFFFFF302821FF302821FF302821FFFFFFFF
310
FF302821FF302821FF302821FFFFFFFFFF302821FF00FF00FF302821FF302821FF302821FF302821FF302821FF302821FF00FF00FF302821FF302821FF302821FFFFFFFFFF302821FF302821FFFFFFFFFF302821FF302821FFFFFFFFFF302821FF302821FF302821FFFFFFFFFF302821FF302821FFFFFFFFFF302821FF3028
310
21FF302821FFFFFFFFFF302821FF302821FFFFFFFFFF302821FF302821FF302821FFFFFFFFFF302821FF302821FF302821FFFFFFFFFF00FF00FF302821FF302821FF302821FF302821FF302821FF302821FF00FF00FFFFFFFFFF302821FF302821FF302821FFFFFFFFFF302821FF302821FFFFFFFFFF302821FF302821FFFF
310
FFFFFF302821FF302821FF302821FFFFFFFFFF302821FF302821FFFFFFFFFF302821FF302821FF302821FFFFFFFFFF302821FF302821FFFFFFFFFF302821FF302821FF302821FFFFFFFFFF302821FF302821FF302821FF00FF00FF302821FF302821FF302821FF302821FF302821FF302821FF00FF00FF302821FFFFFFFFFF
310
302821FF302821FF302821FFFFFFFFFF302821FF302821FFFFFFFFFF302821FF302821FFFFFFFFFF302821FF302821FF302821FFFFFFFFFF302821FF302821FFFFFFFFFF302821FF302821FF302821FFFFFFFFFF302821FF302821FFFFFFFFFF302821FF302821FF302821FFFFFFFFFF302821FF302821FF00FF00FF302821
310
FF302821FF302821FF302821FF302821FF302821FF00FF00FF302821FF302821FFFFFFFFFF302821FF302821FF302821FFFFFFFFFF302821FF302821FFFFFFFFFF302821FF302821FFFFFFFFFF302821FF302821FF302821FFFFFFFFFF302821FF302821FFFFFFFFFF302821FF302821FF302821FFFFFFFFFF302821FF3028
310
21FFFFFFFFFF302821FF302821FF302821FFFFFFFFFF302821FF00FF00FF302821FF302821FF302821FF302821FF302821FF302821FF00FF00FFFFFFFFFF302821FF302821FFFFFFFFFF302821FF302821FF302821FFFFFFFFFF302821FF302821FFFFFFFFFF302821FF302821FFFFFFFFFF302821FF302821FF302821FFFF
310
FFFFFF302821FF302821FFFFFFFFFF302821FF302821FF302821FFFFFFFFFF302821FF302821FFFFFFFFFF302821FF302821FF302821FFFFFFFFFF00FF00FF302821FF302821FF302821FF302821FF302821FF302821FF00FF00FF302821FFFFFFFFFF302821FF302821FFFFFFFFFF302821FF302821FF302821FFFFFFFFFF
310
302821FF302821FFFFFFFFFF302821FF302821FFFFFFFFFF302821FF302821FF302821FFFFFFFFFF302821FF302821FFFFFFFFFF302821FF302821FF302821FFFFFFFFFF302821FF302821FFFFFFFFFF302821FF302821FF302821FF00FF00FF302821FF302821FF302821FF302821FF302821FF302821FF00FF00FF00FF00
310
FF00FF00FF00FF00FF00FF00FF00FF00FF00FF00FF00FF00FF00FF00FF00FF00FF00FF00FF00FF00FF00FF00FF00FF00FF00FF00FF00FF00FF00FF00FF00FF00FF00FF00FF00FF00FF00FF00FF00FF00FF00FF00FF00FF00FF00FF00FF00FF00FF00FF00FF00FF00FF00FF00FF00FF00FF00FF00FF00FF00FF00FF00FF00FF
310
00FF302821FF302821FF302821FF302821FF302821FF302821FF302821FF302821FF302821FF302821FF302821FF302821FF302821FF302821FF302821FF302821FF302821FF302821FF302821FF302821FF302821FF302821FF302821FF302821FF302821FF302821FF302821FF302821FF302821FF302821FF302821FF30
310
2821FF302821FF302821FF302821FF302821FF302821FF302821FF302821FF302821FF302821FF302821FF302821FF302821FF302821FF302821FF302821FF302821FF302821FF302821FF302821FF302821FF302821FF302821FF302821FF302821FF302821FF302821FF302821FF302821FF302821FF302821FF302821FF
310
302821FF302821FF302821FF302821FF302821FF302821FF302821FF302821FF302821FF302821FF302821FF302821FF302821FF302821FF302821FF302821FF302821FF302821FF302821FF302821FF302821FF302821FF302821FF302821FF302821FF302821FF302821FF302821FF302821FF302821FF302821FF302821
310
FF302821FF302821FF302821FF302821FF302821FF302821FF302821FF302821FF302821FF302821FF302821FF302821FF302821FF302821FF302821FF302821FF302821FF302821FF302821FF302821FF302821FF302821FF302821FF302821FF302821FF302821FF302821FF302821FF302821FF302821FF302821FF3028
310
21FF302821FF302821FF302821FF302821FF302821FF302821FF302821FF302821FF302821FF302821FF302821FF302821FF302821FF302821FF302821FF302821FF302821FF302821FF302821FF302821FF302821FF302821FF302821FF302821FF302821FF302821FF302821FF302821FF302821FF302821FF302821FF30
310
2821FF302821FF302821FF302821FF302821FF302821FF302821FF302821FF302821FF302821FF302821FF302821FF302821FF302821FF302821FF302821FF302821FF302821FF302821FF302821FF302821FF302821FF302821FF302821FF302821FF302821FF302821FF302821FF302821FF302821FF302821FF302821FF
310
302821FF302821FF302821FF302821FF302821FF302821FF302821FF302821FF302821FF302821FF302821FF302821FF302821FF302821FF302821FF302821FF302821FF302821FF302821FF302821FF302821FF302821FF302821FF302821FF302821FF302821FF302821FF302821FF302821FF302821FF302821FF302821
310
FF302821FF302821FF302821FF302821FF302821FF302821FF302821FF302821FF302821FF302821FF302821FF302821FF302821FF302821FF302821FF302821FF302821FF302821FF302821FF302821FF302821FF302821FF302821FF302821FF302821FF302821FF302821FF302821FF302821FF302821FF302821FF3028
310
21FF302821FF302821FF302821FF302821FF302821FF302821FF302821FF302821FF302821FF302821FF302821FF302821FF302821FF302821FF302821FF302821FF302821FF302821FF302821FF302821FF302821FF302821FF302821FF302821FF302821FF302821FF302821FF302821FF302821FF302821FF302821FF30
310
2821FF302821FF302821FF302821FF302821FF302821FF302821FF302821FF302821FF302821FF302821FF302821FF302821FF302821FF302821FF302821FF302821FF302821FF302821FF302821FF302821FF302821FF302821FF302821FF302821FF302821FF302821FF302821FF302821FF302821FF302821FF302821FF
310
302821FF302821FF302821FF302821FF302821FF302821FF302821FF302821FF302821FF302821FF302821FF302821FF302821FF302821FF302821FF302821FF302821FF302821FF302821FF302821FF302821FF302821FF302821FF302821FF302821FF302821FF302821FF302821FF302821FF302821FF302821FF302821
310
FF302821FF302821FF302821FF302821FF302821FF302821FF302821FF302821FF302821FF302821FF302821FF302821FF302821FF302821FF302821FF302821FF302821FF302821FF302821FF302821FF302821FF302821FF302821FF302821FF302821FF302821FF302821FF302821FF302821FF302821FF302821FF3028
310
21FF302821FF302821FF302821FF302821FF302821FF302821FF302821FF302821FF302821FF302821FF302821FF302821FF302821FF302821FF302821FF302821FF302821FF302821FF302821FF302821FF302821FF302821FF
102
{BLKREFS
331
104
331
88
331
96
331
9E
331
D3
102
}
 70
     4
280
     1
281
     0
1001
AcDbDynamicBlockGUID
1000
{4758194D-7D50-8747-BDDE-46D18546228C}
  0
BLOCK_RECORD
  5
188
330
1
100
AcDbSymbolTableRecord
100
AcDbBlockTableRecord
  2
*D10
340
0
 70
     0
280
     1
281
     0
  0
BLOCK_RECORD
  5
194
330
1
100
AcDbSymbolTableRecord
100
AcDbBlockTableRecord
  2
*D11
340
0
 70
     0
280
     1
281
     0
  0
BLOCK_RECORD
  5
1A0
330
1
100
AcDbSymbolTableRecord
100
AcDbBlockTableRecord
  2
*D12
340
0
 70
     0
280
     1
281
     0
  0
BLOCK_RECORD
  5
1AC
330
1
100
AcDbSymbolTableRecord
100
AcDbBlockTableRecord
  2
*D13
340
0
 70
     0
280
     1
281
     0
  0
BLOCK_RECORD
  5
1B8
330
1
100
AcDbSymbolTableRecord
100
AcDbBlockTableRecord
  2
*D14
340
0
 70
     0
280
     1
281
     0
  0
BLOCK_RECORD
  5
1C4
330
1
100
AcDbSymbolTableRecord
100
AcDbBlockTableRecord
  2
*D15
340
0
 70
     0
280
     1
281
     0
  0
BLOCK_RECORD
  5
1D1
330
1
100
AcDbSymbolTableRecord
100
AcDbBlockTableRecord
  2
*D16
340
0
 70
     0
280
     1
281
     0
  0
ENDTAB
  0
ENDSEC
  0
SECTION
  2
BLOCKS
  0
BLOCK
  5
71
330
70
100
AcDbEntity
  8
0
100
AcDbBlockBegin
  2
*Model_Space
 70
     0
 10
0.0
 20
0.0
 30
0.0
  3
*Model_Space
  1

  0
ENDBLK
  5
72
330
70
100
AcDbEntity
  8
0
100
AcDbBlockEnd
  0
BLOCK
  5
6D
330
6C
100
AcDbEntity
 67
     1
  8
0
100
AcDbBlockBegin
  2
*Paper_Space
 70
     0
 10
0.0
 20
0.0
 30
0.0
  3
*Paper_Space
  1

  0
ENDBLK
  5
6E
330
6C
100
AcDbEntity
 67
     1
  8
0
100
AcDbBlockEnd
  0
BLOCK
  5
75
330
74
100
AcDbEntity
 67
     1
  8
0
100
AcDbBlockBegin
  2
*Paper_Space0
 70
     0
 10
0.0
 20
0.0
 30
0.0
  3
*Paper_Space0
  1

  0
ENDBLK
  5
76
330
74
100
AcDbEntity
 67
     1
  8
0
100
AcDbBlockEnd
  0
BLOCK
  5
82
330
81
100
AcDbEntity
  8
0
100
AcDbBlockBegin
  2
_Oblique
 70
     0
 10
0.0
 20
0.0
 30
0.0
  3
_Oblique
  1

  0
LINE
  5
83
330
81
100
AcDbEntity
  8
0
  6
ByBlock
 62
     0
370
    -2
100
AcDbLine
 10
-0.5
 20
-0.5
 30
0.0
 11
0.5
 21
0.5
 31
0.0
  0
ENDBLK
  5
84
330
81
100
AcDbEntity
  8
0
100
AcDbBlockEnd
  0
BLOCK
  5
8B
330
89
100
AcDbEntity
  8
0
100
AcDbBlockBegin
  2
Wand
 70
     0
 10
0.0
 20
0.0
 30
0.0
  3
Wand
  1

  0
LINE
  5
8C
330
89
100
AcDbEntity
  8
Linie_dünn
100
AcDbLine
 10
-17.13556061675859
 20
-234.7609318563801
 30
0.0
 11
445.5951339263346
 21
-210.9818452406432
 31
0.0
  0
LINE
  5
90
330
89
100
AcDbEntity
  8
Linie_dünn
100
AcDbLine
 10
-16.8789561687615
 20
-239.7543429307128
 30
0.0
 11
445.8517383743318
 21
-215.9752563149758
 31
0.0
  0
LWPOLYLINE
  5
91
330
89
100
AcDbEntity
  8
Linie_dick
100
AcDbPolyline
 90
        4
 70
     0
 43
0.0
 10
0.0
 20
-233.8803592362356
 10
0.0
 20
0.0
 10
425.0
 20
0.0
 10
425.0
 20
-212.0402005200149
  0
LINE
  5
93
330
89
100
AcDbEntity
  8
Linie_dick
100
AcDbLine
 10
-0.0000000000002274
 20
-185.0
 30
0.0
 11
424.9999999999998
 21
-185.0
 31
0.0
  0
ENDBLK
  5
94
330
89
100
AcDbEntity
  8
0
100
AcDbBlockEnd
  0
BLOCK
  5
189
330
188
100
AcDbEntity
  8
0
100
AcDbBlockBegin
  2
*D10
 70
     1
 10
0.0
 20
0.0
 30
0.0
  3
*D10
  1

  0
LINE
  5
2EF
330
188
100
AcDbEntity
  8
Bemassung
 62
     0
440
 16777216
370
    -2
100
AcDbLine
 10
35.51413523521467
 20
185.2980978176771
 30
0.0
 11
35.51413523521467
 21
172.1816208210077
 31
0.0
  0
LINE
  5
2F0
330
188
100
AcDbEntity
  8
Bemassung
 62
     0
440
 16777216
370
    -2
100
AcDbLine
 10
78.01413514196035
 20
187.4821136845069
 30
0.0
 11
78.01413514196035
 21
172.1816208210077
 31
0.0
  0
LINE
  5
2F1
330
188
100
AcDbEntity
  8
Bemassung
 62
     0
440
 16777216
370
    -2
100
AcDbLine
 10
34.51413523740889
 20
173.4316208182649
 30
0.0
 11
79.01413513976613
 21
173.4316208182649
 31
0.0
  0
INSERT
  5
2F2
330
188
100
AcDbEntity
  8
Bemassung
 62
     0
440
 16777216
370
    -2
100
AcDbBlockReference
  2
_Oblique
 10
35.51413523521467
 20
173.4316208182649
 30
0.0
 41
2.499999994514451
 42
2.499999994514451
 43
2.499999994514451
 50
180.0
  0
INSERT
  5
2F3
330
188
100
AcDbEntity
  8
Bemassung
 62
     0
440
 16777216
370
    -2
100
AcDbBlockReference
  2
_Oblique
 10
78.01413514196035
 20
173.4316208182649
 30
0.0
 41
2.499999994514451
 42
2.499999994514451
 43
2.499999994514451
  0
MTEXT
  5
2F4
330
188
100
AcDbEntity
  8
Bemassung
 62
     0
440
 16777216
100
AcDbMText
 10
56.76413518858751
 20
175.3444673352137
 30
0.0
 40
2.142999995297788
 41
0.0
 46
0.0
 71
     5
 72
     1
  1
z.B. 42,5cm
 73
     1
 44
1.0
  0
POINT
  5
2F5
330
188
100
AcDbEntity
  8
Defpoints
 62
     0
440
 16777216
100
AcDbPoint
 10
35.51413523521467
 20
185.9230978163057
 30
0.0
  0
POINT
  5
2F6
330
188
100
AcDbEntity
  8
Defpoints
 62
     0
440
 16777216
100
AcDbPoint
 10
78.01413514196035
 20
188.1071136831355
 30
0.0
  0
POINT
  5
2F7
330
188
100
AcDbEntity
  8
Defpoints
 62
     0
440
 16777216
100
AcDbPoint
 10
78.01413514196035
 20
173.4316208182649
 30
0.0
  0
ENDBLK
  5
18A
330
188
100
AcDbEntity
  8
0
100
AcDbBlockEnd
  0
BLOCK
  5
195
330
194
100
AcDbEntity
  8
0
100
AcDbBlockBegin
  2
*D11
 70
     1
 10
0.0
 20
0.0
 30
0.0
  3
*D11
  1

  0
LINE
  5
2A8
330
194
100
AcDbEntity
  8
Bemassung
 62
     0
440
 16777216
370
    -2
100
AcDbLine
 10
34.88913523658607
 20
209.3111336886109
 30
0.0
 11
25.8470673231013
 21
209.3111336886109
 31
0.0
  0
LINE
  5
2A9
330
194
100
AcDbEntity
  8
Bemassung
 62
     0
440
 16777216
370
    -2
100
AcDbLine
 10
34.88913523658607
 20
194.3111337215242
 30
0.0
 11
25.8470673231013
 21
194.3111337215242
 31
0.0
  0
LINE
  5
2AA
330
194
100
AcDbEntity
  8
Bemassung
 62
     0
440
 16777216
370
    -2
100
AcDbLine
 10
27.09706732035852
 20
210.3111336864167
 30
0.0
 11
27.09706732035853
 21
193.3111337237184
 31
0.0
  0
INSERT
  5
2AB
330
194
100
AcDbEntity
  8
Bemassung
 62
     0
440
 16777216
370
    -2
100
AcDbBlockReference
  2
_Oblique
 10
27.09706732035852
 20
209.3111336886109
 30
0.0
 41
2.499999994514451
 42
2.499999994514451
 43
2.499999994514451
 50
90.0
  0
INSERT
  5
2AC
330
194
100
AcDbEntity
  8
Bemassung
 62
     0
440
 16777216
370
    -2
100
AcDbBlockReference
  2
_Oblique
 10
27.09706732035853
 20
194.3111337215242
 30
0.0
 41
2.499999994514451
 42
2.499999994514451
 43
2.499999994514451
 50
270.0
  0
MTEXT
  5
2AD
330
194
100
AcDbEntity
  8
Bemassung
 62
     0
440
 16777216
100
AcDbMText
 10
25.3779094114432
 20
201.8111337050675
 30
0.0
 40
2.142999995297788
 41
0.0
 46
0.0
 71
     5
 72
     1
  1
15cm
 11
0.0000000000000001
 21
1.0
 31
0.0
 73
     1
 44
1.0
  0
POINT
  5
2AE
330
194
100
AcDbEntity
  8
Defpoints
 62
     0
440
 16777216
100
AcDbPoint
 10
35.51413523521468
 20
209.3111336886109
 30
0.0
  0
POINT
  5
2AF
330
194
100
AcDbEntity
  8
Defpoints
 62
     0
440
 16777216
100
AcDbPoint
 10
35.51413523521468
 20
194.3111337215242
 30
0.0
  0
POINT
  5
2B0
330
194
100
AcDbEntity
  8
Defpoints
 62
     0
440
 16777216
100
AcDbPoint
 10
27.09706732035853
 20
194.3111337215242
 30
0.0
  0
ENDBLK
  5
196
330
194
100
AcDbEntity
  8
0
100
AcDbBlockEnd
  0
BLOCK
  5
1A1
330
1A0
100
AcDbEntity
  8
0
100
AcDbBlockBegin
  2
*D12
 70
     1
 10
0.0
 20
0.0
 30
0.0
  3
*D12
  1

  0
LINE
  5
301
330
1A0
100
AcDbEntity
  8
Bemassung
 62
     0
440
 16777216
370
    -2
100
AcDbLine
 10
35.51413523521467
 20
71.44711779079485
 30
0.0
 11
35.51413523521467
 21
58.33064079412549
 31
0.0
  0
LINE
  5
302
330
1A0
100
AcDbEntity
  8
Bemassung
 62
     0
440
 16777216
370
    -2
100
AcDbLine
 10
78.01413514196035
 20
73.6311336576247
 30
0.0
 11
78.01413514196035
 21
58.33064079412549
 31
0.0
  0
LINE
  5
303
330
1A0
100
AcDbEntity
  8
Bemassung
 62
     0
440
 16777216
370
    -2
100
AcDbLine
 10
34.51413523740889
 20
59.58064079138272
 30
0.0
 11
79.01413513976613
 21
59.58064079138272
 31
0.0
  0
INSERT
  5
304
330
1A0
100
AcDbEntity
  8
Bemassung
 62
     0
440
 16777216
370
    -2
100
AcDbBlockReference
  2
_Oblique
 10
35.51413523521467
 20
59.58064079138272
 30
0.0
 41
2.499999994514451
 42
2.499999994514451
 43
2.499999994514451
 50
180.0
  0
INSERT
  5
305
330
1A0
100
AcDbEntity
  8
Bemassung
 62
     0
440
 16777216
370
    -2
100
AcDbBlockReference
  2
_Oblique
 10
78.01413514196035
 20
59.58064079138272
 30
0.0
 41
2.499999994514451
 42
2.499999994514451
 43
2.499999994514451
  0
MTEXT
  5
306
330
1A0
100
AcDbEntity
  8
Bemassung
 62
     0
440
 16777216
100
AcDbMText
 10
56.76413518858751
 20
61.49348730833149
 30
0.0
 40
2.142999995297788
 41
0.0
 46
0.0
 71
     5
 72
     1
  1
z.B. 42,5cm
 73
     1
 44
1.0
  0
POINT
  5
307
330
1A0
100
AcDbEntity
  8
Defpoints
 62
     0
440
 16777216
100
AcDbPoint
 10
35.51413523521467
 20
72.07211778942346
 30
0.0
  0
POINT
  5
308
330
1A0
100
AcDbEntity
  8
Defpoints
 62
     0
440
 16777216
100
AcDbPoint
 10
78.01413514196035
 20
74.25613365625331
 30
0.0
  0
POINT
  5
309
330
1A0
100
AcDbEntity
  8
Defpoints
 62
     0
440
 16777216
100
AcDbPoint
 10
78.01413514196035
 20
59.58064079138272
 30
0.0
  0
ENDBLK
  5
1A2
330
1A0
100
AcDbEntity
  8
0
100
AcDbBlockEnd
  0
BLOCK
  5
1AD
330
1AC
100
AcDbEntity
  8
0
100
AcDbBlockBegin
  2
*D13
 70
     1
 10
0.0
 20
0.0
 30
0.0
  3
*D13
  1

  0
LINE
  5
30A
330
1AC
100
AcDbEntity
  8
Bemassung
 62
     0
440
 16777216
370
    -2
100
AcDbLine
 10
151.4449690896362
 20
68.14598227446687
 30
0.0
 11
151.4449690896362
 21
55.02950527779752
 31
0.0
  0
LINE
  5
30B
330
1AC
100
AcDbEntity
  8
Bemassung
 62
     0
440
 16777216
370
    -2
100
AcDbLine
 10
193.9449689963818
 20
70.32999814129674
 30
0.0
 11
193.9449689963818
 21
55.02950527779752
 31
0.0
  0
LINE
  5
30C
330
1AC
100
AcDbEntity
  8
Bemassung
 62
     0
440
 16777216
370
    -2
100
AcDbLine
 10
150.4449690918304
 20
56.27950527505475
 30
0.0
 11
194.9449689941876
 21
56.27950527505475
 31
0.0
  0
INSERT
  5
30D
330
1AC
100
AcDbEntity
  8
Bemassung
 62
     0
440
 16777216
370
    -2
100
AcDbBlockReference
  2
_Oblique
 10
151.4449690896362
 20
56.27950527505475
 30
0.0
 41
2.499999994514451
 42
2.499999994514451
 43
2.499999994514451
 50
180.0
  0
INSERT
  5
30E
330
1AC
100
AcDbEntity
  8
Bemassung
 62
     0
440
 16777216
370
    -2
100
AcDbBlockReference
  2
_Oblique
 10
193.9449689963818
 20
56.27950527505475
 30
0.0
 41
2.499999994514451
 42
2.499999994514451
 43
2.499999994514451
  0
MTEXT
  5
30F
330
1AC
100
AcDbEntity
  8
Bemassung
 62
     0
440
 16777216
100
AcDbMText
 10
172.694969043009
 20
58.19235179200351
 30
0.0
 40
2.142999995297788
 41
0.0
 46
0.0
 71
     5
 72
     1
  1
z.B. 42,5cm
 73
     1
 44
1.0
  0
POINT
  5
310
330
1AC
100
AcDbEntity
  8
Defpoints
 62
     0
440
 16777216
100
AcDbPoint
 10
151.4449690896362
 20
68.77098227309549
 30
0.0
  0
POINT
  5
311
330
1AC
100
AcDbEntity
  8
Defpoints
 62
     0
440
 16777216
100
AcDbPoint
 10
193.9449689963818
 20
70.95499813992535
 30
0.0
  0
POINT
  5
312
330
1AC
100
AcDbEntity
  8
Defpoints
 62
     0
440
 16777216
100
AcDbPoint
 10
193.9449689963818
 20
56.27950527505475
 30
0.0
  0
ENDBLK
  5
1AE
330
1AC
100
AcDbEntity
  8
0
100
AcDbBlockEnd
  0
BLOCK
  5
1B9
330
1B8
100
AcDbEntity
  8
0
100
AcDbBlockBegin
  2
*D14
 70
     1
 10
0.0
 20
0.0
 30
0.0
  3
*D14
  1

  0
LINE
  5
2F8
330
1B8
100
AcDbEntity
  8
Bemassung
 62
     0
440
 16777216
370
    -2
100
AcDbLine
 10
151.4449720016577
 20
185.9093570978532
 30
0.0
 11
151.4449720016577
 21
172.7928801011839
 31
0.0
  0
LINE
  5
2F9
330
1B8
100
AcDbEntity
  8
Bemassung
 62
     0
440
 16777216
370
    -2
100
AcDbLine
 10
193.9449719084034
 20
188.0933729646831
 30
0.0
 11
193.9449719084034
 21
172.7928801011839
 31
0.0
  0
LINE
  5
2FA
330
1B8
100
AcDbEntity
  8
Bemassung
 62
     0
440
 16777216
370
    -2
100
AcDbLine
 10
150.444972003852
 20
174.0428800984411
 30
0.0
 11
194.9449719062092
 21
174.0428800984411
 31
0.0
  0
INSERT
  5
2FB
330
1B8
100
AcDbEntity
  8
Bemassung
 62
     0
440
 16777216
370
    -2
100
AcDbBlockReference
  2
_Oblique
 10
151.4449720016577
 20
174.0428800984411
 30
0.0
 41
2.499999994514451
 42
2.499999994514451
 43
2.499999994514451
 50
180.0
  0
INSERT
  5
2FC
330
1B8
100
AcDbEntity
  8
Bemassung
 62
     0
440
 16777216
370
    -2
100
AcDbBlockReference
  2
_Oblique
 10
193.9449719084034
 20
174.0428800984411
 30
0.0
 41
2.499999994514451
 42
2.499999994514451
 43
2.499999994514451
  0
MTEXT
  5
2FD
330
1B8
100
AcDbEntity
  8
Bemassung
 62
     0
440
 16777216
100
AcDbMText
 10
172.6949719550306
 20
175.9557266153899
 30
0.0
 40
2.142999995297788
 41
0.0
 46
0.0
 71
     5
 72
     1
  1
z.B. 42,5cm
 73
     1
 44
1.0
  0
POINT
  5
2FE
330
1B8
100
AcDbEntity
  8
Defpoints
 62
     0
440
 16777216
100
AcDbPoint
 10
151.4449720016577
 20
186.5343570964818
 30
0.0
  0
POINT
  5
2FF
330
1B8
100
AcDbEntity
  8
Defpoints
 62
     0
440
 16777216
100
AcDbPoint
 10
193.9449719084034
 20
188.7183729633117
 30
0.0
  0
POINT
  5
300
330
1B8
100
AcDbEntity
  8
Defpoints
 62
     0
440
 16777216
100
AcDbPoint
 10
193.9449719084034
 20
174.0428800984411
 30
0.0
  0
ENDBLK
  5
1BA
330
1B8
100
AcDbEntity
  8
0
100
AcDbBlockEnd
  0
BLOCK
  5
1C5
330
1C4
100
AcDbEntity
  8
0
100
AcDbBlockBegin
  2
*D15
 70
     1
 10
0.0
 20
0.0
 30
0.0
  3
*D15
  1

  0
LINE
  5
313
330
1C4
100
AcDbEntity
  8
Bemassung
 62
     0
440
 16777216
370
    -2
100
AcDbLine
 10
166.4449719687444
 20
210.5473929674155
 30
0.0
 11
166.4449719687444
 21
222.7638126894502
 31
0.0
  0
LINE
  5
314
330
1C4
100
AcDbEntity
  8
Bemassung
 62
     0
440
 16777216
370
    -2
100
AcDbLine
 10
168.9449719632589
 20
210.5473929674155
 30
0.0
 11
168.9449719632589
 21
222.7638126894502
 31
0.0
  0
LINE
  5
315
330
1C4
100
AcDbEntity
  8
Bemassung
 62
     0
440
 16777216
370
    -2
100
AcDbLine
 10
168.9449719632589
 20
221.513812692193
 30
0.0
 11
165.4449719709386
 21
221.513812692193
 31
0.0
  0
LINE
  5
316
330
1C4
100
AcDbEntity
  8
Bemassung
 62
     0
440
 16777216
370
    -2
100
AcDbLine
 10
166.4449719687444
 20
221.513812692193
 30
0.0
 11
154.8231745863325
 21
221.513812692193
 31
0.0
  0
INSERT
  5
317
330
1C4
100
AcDbEntity
  8
Bemassung
 62
     0
440
 16777216
370
    -2
100
AcDbBlockReference
  2
_Oblique
 10
168.9449719632589
 20
221.513812692193
 30
0.0
 41
2.499999994514451
 42
2.499999994514451
 43
2.499999994514451
  0
INSERT
  5
318
330
1C4
100
AcDbEntity
  8
Bemassung
 62
     0
440
 16777216
370
    -2
100
AcDbBlockReference
  2
_Oblique
 10
166.4449719687444
 20
221.513812692193
 30
0.0
 41
2.499999994514451
 42
2.499999994514451
 43
2.499999994514451
 50
180.0
  0
MTEXT
  5
319
330
1C4
100
AcDbEntity
  8
Bemassung
 62
     0
440
 16777216
100
AcDbMText
 10
159.3840732802812
 20
223.4266592091418
 30
0.0
 40
2.142999995297788
 41
0.0
 46
0.0
 71
     5
 72
     1
  1
2,5cm
 73
     1
 44
1.0
  0
POINT
  5
31A
330
1C4
100
AcDbEntity
  8
Defpoints
 62
     0
440
 16777216
100
AcDbPoint
 10
166.4449719687444
 20
209.9223929687869
 30
0.0
  0
POINT
  5
31B
330
1C4
100
AcDbEntity
  8
Defpoints
 62
     0
440
 16777216
100
AcDbPoint
 10
168.9449719632589
 20
209.9223929687869
 30
0.0
  0
POINT
  5
31C
330
1C4
100
AcDbEntity
  8
Defpoints
 62
     0
440
 16777216
100
AcDbPoint
 10
168.9449719632589
 20
221.513812692193
 30
0.0
  0
ENDBLK
  5
1C6
330
1C4
100
AcDbEntity
  8
0
100
AcDbBlockEnd
  0
BLOCK
  5
1D2
330
1D1
100
AcDbEntity
  8
0
100
AcDbBlockBegin
  2
*D16
 70
     1
 10
0.0
 20
0.0
 30
0.0
  3
*D16
  1

  0
LINE
  5
326
330
1D1
100
AcDbEntity
  8
Bemassung
 62
     0
440
 16777216
370
    -2
100
AcDbLine
 10
151.4449720016577
 20
212.5473929630271
 30
0.0
 11
151.4449720016577
 21
246.8668627987051
 31
0.0
  0
LINE
  5
327
330
1D1
100
AcDbEntity
  8
Bemassung
 62
     0
440
 16777216
370
    -2
100
AcDbLine
 10
168.9449719632589
 20
240.5473929015889
 30
0.0
 11
168.9449719632589
 21
246.8668627987051
 31
0.0
  0
LINE
  5
328
330
1D1
100
AcDbEntity
  8
Bemassung
 62
     0
440
 16777216
370
    -2
100
AcDbLine
 10
150.444972003852
 20
245.6168628014478
 30
0.0
 11
169.9449719610647
 21
245.6168628014478
 31
0.0
  0
INSERT
  5
329
330
1D1
100
AcDbEntity
  8
Bemassung
 62
     0
440
 16777216
370
    -2
100
AcDbBlockReference
  2
_Oblique
 10
151.4449720016577
 20
245.6168628014478
 30
0.0
 41
2.499999994514451
 42
2.499999994514451
 43
2.499999994514451
 50
180.0
  0
INSERT
  5
32A
330
1D1
100
AcDbEntity
  8
Bemassung
 62
     0
440
 16777216
370
    -2
100
AcDbBlockReference
  2
_Oblique
 10
168.9449719632589
 20
245.6168628014478
 30
0.0
 41
2.499999994514451
 42
2.499999994514451
 43
2.499999994514451
  0
MTEXT
  5
32B
330
1D1
100
AcDbEntity
  8
Bemassung
 62
     0
440
 16777216
100
AcDbMText
 10
160.1949719824583
 20
247.5297093183967
 30
0.0
 40
2.142999995297788
 41
0.0
 46
0.0
 71
     5
 72
     1
  1
z.B. 17,5cm
 73
     1
 44
1.0
  0
POINT
  5
32C
330
1D1
100
AcDbEntity
  8
Defpoints
 62
     0
440
 16777216
100
AcDbPoint
 10
151.4449720016577
 20
211.9223929643985
 30
0.0
  0
POINT
  5
32D
330
1D1
100
AcDbEntity
  8
Defpoints
 62
     0
440
 16777216
100
AcDbPoint
 10
168.9449719632589
 20
239.9223929029603
 30
0.0
  0
POINT
  5
32E
330
1D1
100
AcDbEntity
  8
Defpoints
 62
     0
440
 16777216
100
AcDbPoint
 10
168.9449719632589
 20
245.6168628014478
 30
0.0
  0
ENDBLK
  5
1D3
330
1D1
100
AcDbEntity
  8
0
100
AcDbBlockEnd
  0
ENDSEC
  0
SECTION
  2
ENTITIES
  0
LWPOLYLINE
  5
87
330
70
100
AcDbEntity
  8
0
  6
Continuous
100
AcDbPolyline
 90
        4
 70
     1
 43
0.0
 10
8.189264434426377
 20
9.288418893900654
 10
200.1160130897115
 20
9.288418893900654
 10
200.1160130897115
 20
284.2206982274971
 10
8.189264434426377
 20
284.2206982274971
  0
INSERT
  5
88
102
{ACAD_REACTORS
330
D0
330
109
330
11C
102
}
330
70
100
AcDbEntity
  8
0
100
AcDbBlockReference
  2
Wand
 10
35.51413523521467
 20
209.3111336886108
 30
0.0
 41
0.0999999997805781
 42
0.0999999997805781
 43
0.0999999997805781
  0
INSERT
  5
96
102
{ACAD_REACTORS
330
CF
102
}
330
70
100
AcDbEntity
  8
0
100
AcDbBlockReference
  2
Wand
 10
151.4449720016577
 20
209.9223929687869
 30
0.0
 41
0.0999999997805781
 42
0.0999999997805781
 43
0.0999999997805781
  0
LWPOLYLINE
  5
97
330
70
100
AcDbEntity
  8
Linie_dick
100
AcDbPolyline
 90
        4
 70
     1
 43
0.0
 10
131.4449720455421
 20
208.9223929709811
 10
151.4449720016577
 20
208.9223929709811
 10
151.4449720016577
 20
211.9223929643985
 10
131.4449720455421
 20
211.9223929643985
  0
LWPOLYLINE
  5
98
102
{ACAD_REACTORS
330
161
330
174
102
}
330
70
100
AcDbEntity
  8
Linie_dick
100
AcDbPolyline
 90
        4
 70
     1
 43
0.0
 10
168.9449719632589
 20
209.9223929687869
 10
171.9449719566762
 20
209.9223929687869
 10
171.9449719566762
 20
239.9223929029603
 10
168.9449719632589
 20
239.9223929029603
  0
LINE
  5
99
102
{ACAD_REACTORS
330
174
102
}
330
70
100
AcDbEntity
  8
Linie_dick
100
AcDbLine
 10
151.4449720016577
 20
211.9223929643985
 30
0.0
 11
168.9449719632589
 21
211.9223929643985
 31
0.0
  0
LINE
  5
9A
330
70
100
AcDbEntity
  8
Linie_dick
100
AcDbLine
 10
151.4449720016577
 20
210.9223929665926
 30
0.0
 11
168.9449719632589
 21
210.9223929665926
 31
0.0
  0
LWPOLYLINE
  5
9B
102
{ACAD_REACTORS
330
11C
102
}
330
70
100
AcDbEntity
  8
Linie_Farbig
100
AcDbPolyline
 90
        4
 70
     0
 43
0.0
 10
35.51413523521467
 20
194.3111337215241
 10
35.5141352352147
 20
209.3111336886108
 10
78.01413514196037
 20
209.3111336886108
 10
78.01413514196037
 20
188.1071136831355
  0
LWPOLYLINE
  5
9D
102
{ACAD_REACTORS
330
161
102
}
330
70
100
AcDbEntity
  8
Linie_Farbig
100
AcDbPolyline
 90
        3
 70
     0
 43
0.0
 10
166.4449719687444
 20
209.9223929687869
 10
193.9449719084034
 20
209.9223929687869
 10
193.9449719084034
 20
188.7183729633117
  0
INSERT
  5
9E
102
{ACAD_REACTORS
330
CC
102
}
330
70
100
AcDbEntity
  8
0
100
AcDbBlockReference
  2
Wand
 10
35.51413523521467
 20
95.46015366172854
 30
0.0
 41
0.0999999997805781
 42
0.0999999997805781
 43
0.0999999997805781
  0
LWPOLYLINE
  5
9F
102
{ACAD_REACTORS
330
D1
102
}
330
70
100
AcDbEntity
  8
Linie_dick
100
AcDbPolyline
 90
        4
 70
     1
 43
0.0
 10
13.01413528458461
 20
97.4601536573401
 10
53.01413519681583
 20
97.4601536573401
 10
53.01413519681583
 20
122.4601536024846
 10
13.01413528458461
 20
122.4601536024846
  0
LINE
  5
A0
330
70
100
AcDbEntity
  8
Linie_dick
100
AcDbLine
 10
35.51413523521467
 20
96.46015365953431
 30
0.0
 11
53.01413519681583
 21
96.46015365953431
 31
0.0
  0
LWPOLYLINE
  5
A1
330
70
100
AcDbEntity
  8
Linie_dick
100
AcDbPolyline
 90
        4
 70
     1
 43
0.0
 10
35.51413523521467
 20
97.4601536573401
 10
53.01413519681583
 20
97.4601536573401
 10
53.01413519681583
 20
95.46015366172854
 10
35.51413523521467
 20
95.46015366172854
  0
LWPOLYLINE
  5
A2
102
{ACAD_REACTORS
330
CC
102
}
330
70
100
AcDbEntity
  8
Linie_dick
100
AcDbPolyline
 90
        4
 70
     1
 43
0.0
 10
63.01413517487365
 20
95.46015366172854
 10
78.01413514196035
 20
95.46015366172854
 10
78.01413514196035
 20
122.4601536024846
 10
63.01413517487365
 20
122.4601536024846
  0
LINE
  5
A3
330
70
100
AcDbEntity
  8
Linie_dick
100
AcDbLine
 10
53.01413519681583
 20
122.4601536024846
 30
0.0
 11
63.01413517487365
 21
122.4601536024846
 31
0.0
  0
ARC
  5
A4
330
70
100
AcDbEntity
  8
Schraffur
100
AcDbCircle
 10
54.45208873935611
 20
95.46015366172854
 30
0.0
 40
1.437953542540262
100
AcDbArc
 50
78.09052287067351
 51
180.0
  0
ARC
  5
A6
330
70
100
AcDbEntity
  8
Schraffur
100
AcDbCircle
 10
61.57005118442656
 20
96.8981072042688
 30
0.0
 40
1.437953542540262
100
AcDbArc
 50
258.0879031919922
 51
101.9120968031468
  0
LINE
  5
A7
330
70
100
AcDbEntity
  8
Schraffur
100
AcDbLine
 10
61.27337074475289
 20
95.49109224087318
 30
0.0
 11
54.74883351032764
 21
96.86715505881567
 31
0.0
  0
ARC
  5
A8
330
70
100
AcDbEntity
  8
Schraffur
100
AcDbCircle
 10
54.45208873935611
 20
98.33606074680908
 30
0.0
 40
1.437953542540262
100
AcDbArc
 50
78.09052287067351
 51
281.9094771293265
  0
ARC
  5
A9
330
70
100
AcDbEntity
  8
Schraffur
100
AcDbCircle
 10
61.57005118442656
 20
99.77401428934932
 30
0.0
 40
1.437953542540262
100
AcDbArc
 50
258.0879031919922
 51
101.9120968031468
  0
LINE
  5
AA
330
70
100
AcDbEntity
  8
Schraffur
100
AcDbLine
 10
61.27337074475289
 20
98.36699932595372
 30
0.0
 11
54.74883351032764
 21
99.74306214389619
 31
0.0
  0
LINE
  5
AB
330
70
100
AcDbEntity
  8
Schraffur
100
AcDbLine
 10
61.27337074475289
 20
98.30512216766441
 30
0.0
 11
54.74883351032764
 21
96.92905934972193
 31
0.0
  0
ARC
  5
AC
330
70
100
AcDbEntity
  8
Schraffur
100
AcDbCircle
 10
54.45208873935611
 20
101.2119678318896
 30
0.0
 40
1.437953542540262
100
AcDbArc
 50
78.09052287067351
 51
281.9094771293265
  0
ARC
  5
AD
330
70
100
AcDbEntity
  8
Schraffur
100
AcDbCircle
 10
61.57005118442656
 20
102.6499213744298
 30
0.0
 40
1.437953542540262
100
AcDbArc
 50
258.0879031919922
 51
101.9120968031468
  0
LINE
  5
AE
330
70
100
AcDbEntity
  8
Schraffur
100
AcDbLine
 10
61.27337074475289
 20
101.2429064110342
 30
0.0
 11
54.74883351032764
 21
102.6189692289767
 31
0.0
  0
LINE
  5
AF
330
70
100
AcDbEntity
  8
Schraffur
100
AcDbLine
 10
61.27337074475289
 20
101.1810292527449
 30
0.0
 11
54.74883351032764
 21
99.80496643480245
 31
0.0
  0
ARC
  5
B0
330
70
100
AcDbEntity
  8
Schraffur
100
AcDbCircle
 10
54.45208873935611
 20
104.0878749169701
 30
0.0
 40
1.437953542540262
100
AcDbArc
 50
78.09052287067351
 51
281.9094771293265
  0
ARC
  5
B1
330
70
100
AcDbEntity
  8
Schraffur
100
AcDbCircle
 10
61.57005118442656
 20
105.5258284595103
 30
0.0
 40
1.437953542540262
100
AcDbArc
 50
258.0879031919922
 51
101.9120968031468
  0
LINE
  5
B2
330
70
100
AcDbEntity
  8
Schraffur
100
AcDbLine
 10
61.27337074475289
 20
104.1188134961147
 30
0.0
 11
54.74883351032764
 21
105.4948763140572
 31
0.0
  0
LINE
  5
B3
330
70
100
AcDbEntity
  8
Schraffur
100
AcDbLine
 10
61.27337074475289
 20
104.0569363378254
 30
0.0
 11
54.74883351032764
 21
102.6808735198829
 31
0.0
  0
ARC
  5
B4
330
70
100
AcDbEntity
  8
Schraffur
100
AcDbCircle
 10
54.45208873935611
 20
106.9637820020506
 30
0.0
 40
1.437953542540262
100
AcDbArc
 50
78.09052287067351
 51
281.9094771293265
  0
ARC
  5
B5
330
70
100
AcDbEntity
  8
Schraffur
100
AcDbCircle
 10
61.57005118442656
 20
108.4017355445909
 30
0.0
 40
1.437953542540262
100
AcDbArc
 50
258.0879031919922
 51
101.9120968031468
  0
LINE
  5
B6
330
70
100
AcDbEntity
  8
Schraffur
100
AcDbLine
 10
61.27337074475289
 20
106.9947205811953
 30
0.0
 11
54.74883351032764
 21
108.3707833991377
 31
0.0
  0
LINE
  5
B7
330
70
100
AcDbEntity
  8
Schraffur
100
AcDbLine
 10
61.27337074475289
 20
106.932843422906
 30
0.0
 11
54.74883351032764
 21
105.5567806049635
 31
0.0
  0
ARC
  5
B8
330
70
100
AcDbEntity
  8
Schraffur
100
AcDbCircle
 10
54.45208873935611
 20
109.8396890871311
 30
0.0
 40
1.437953542540262
100
AcDbArc
 50
78.09052287067351
 51
281.9094771293265
  0
ARC
  5
B9
330
70
100
AcDbEntity
  8
Schraffur
100
AcDbCircle
 10
61.57005118442656
 20
111.2776426296714
 30
0.0
 40
1.437953542540262
100
AcDbArc
 50
258.0879031919922
 51
101.9120968031468
  0
LINE
  5
BA
330
70
100
AcDbEntity
  8
Schraffur
100
AcDbLine
 10
61.27337074475289
 20
109.8706276662758
 30
0.0
 11
54.74883351032764
 21
111.2466904842183
 31
0.0
  0
LINE
  5
BB
330
70
100
AcDbEntity
  8
Schraffur
100
AcDbLine
 10
61.27337074475289
 20
109.8087505079865
 30
0.0
 11
54.74883351032764
 21
108.432687690044
 31
0.0
  0
ARC
  5
BC
330
70
100
AcDbEntity
  8
Schraffur
100
AcDbCircle
 10
54.4519600775442
 20
112.7155690366879
 30
0.0
 40
1.437953542540262
100
AcDbArc
 50
78.09052287067351
 51
281.9094771293265
  0
ARC
  5
BD
330
70
100
AcDbEntity
  8
Schraffur
100
AcDbCircle
 10
61.56992252261464
 20
114.1535225792281
 30
0.0
 40
1.437953542540262
100
AcDbArc
 50
258.0879031919922
 51
101.9120968031468
  0
LINE
  5
BE
330
70
100
AcDbEntity
  8
Schraffur
100
AcDbLine
 10
61.27324208294098
 20
112.7465076158325
 30
0.0
 11
54.74870484851573
 21
114.122570433775
 31
0.0
  0
LINE
  5
BF
330
70
100
AcDbEntity
  8
Schraffur
100
AcDbLine
 10
61.27324208294098
 20
112.6846304575432
 30
0.0
 11
54.74870484851573
 21
111.3085676396007
 31
0.0
  0
ARC
  5
C0
330
70
100
AcDbEntity
  8
Schraffur
100
AcDbCircle
 10
54.4519600775442
 20
115.5914761217684
 30
0.0
 40
1.437953542540262
100
AcDbArc
 50
78.09052287067351
 51
281.9094771293265
  0
ARC
  5
C1
330
70
100
AcDbEntity
  8
Schraffur
100
AcDbCircle
 10
61.56992252261464
 20
117.0294296643086
 30
0.0
 40
1.437953542540262
100
AcDbArc
 50
258.0879031919922
 51
101.9120968031468
  0
LINE
  5
C2
330
70
100
AcDbEntity
  8
Schraffur
100
AcDbLine
 10
61.27324208294098
 20
115.6224147009131
 30
0.0
 11
54.74870484851573
 21
116.9984775188555
 31
0.0
  0
LINE
  5
C3
330
70
100
AcDbEntity
  8
Schraffur
100
AcDbLine
 10
61.27324208294098
 20
115.5605375426237
 30
0.0
 11
54.74870484851573
 21
114.1844747246812
 31
0.0
  0
ARC
  5
C4
330
70
100
AcDbEntity
  8
Schraffur
100
AcDbCircle
 10
54.45183141573228
 20
118.4673560713251
 30
0.0
 40
1.437953542540262
100
AcDbArc
 50
78.09052287067351
 51
281.9094771293265
  0
ARC
  5
C5
330
70
100
AcDbEntity
  8
Schraffur
100
AcDbCircle
 10
61.56979386080273
 20
119.9053096138654
 30
0.0
 40
1.437953542540262
100
AcDbArc
 50
258.0879031919922
 51
101.9120968031468
  0
LINE
  5
C6
330
70
100
AcDbEntity
  8
Schraffur
100
AcDbLine
 10
61.27311342112907
 20
118.4982946504698
 30
0.0
 11
54.74857618670381
 21
119.8743574684123
 31
0.0
  0
LINE
  5
C7
330
70
100
AcDbEntity
  8
Schraffur
100
AcDbLine
 10
61.27311342112907
 20
118.4364174921805
 30
0.0
 11
54.74857618670381
 21
117.060354674238
 31
0.0
  0
ARC
  5
C8
330
70
100
AcDbEntity
  8
Schraffur
100
AcDbCircle
 10
54.45183141573228
 20
121.3432631564056
 30
0.0
 40
1.437953542540262
100
AcDbArc
 50
129.0385644250353
 51
281.9094771293265
  0
ARC
  5
C9
330
70
100
AcDbEntity
  8
Schraffur
100
AcDbCircle
 10
61.56979386080273
 20
122.7812166989459
 30
0.0
 40
1.437953542540262
100
AcDbArc
 50
258.0879031919922
 51
347.0983730361689
  0
LINE
  5
CA
330
70
100
AcDbEntity
  8
Schraffur
100
AcDbLine
 10
61.27311342112907
 20
121.3742017355503
 30
0.0
 11
56.12412363794419
 21
122.4601536024846
 31
0.0
  0
LINE
  5
CB
330
70
100
AcDbEntity
  8
Schraffur
100
AcDbLine
 10
61.27311342112907
 20
121.312324577261
 30
0.0
 11
54.74857618670381
 21
119.9362617593185
 31
0.0
  0
HATCH
  5
CC
330
70
100
AcDbEntity
  8
Schraffur
100
AcDbHatch
 10
0.0
 20
0.0
 30
0.0
210
0.0
220
0.0
230
1.0
  2
ANSI31
 70
     0
 71
     1
 91
        3
 92
        7
 72
     0
 73
     1
 93
        4
 10
78.01413514196035
 20
76.96015370232159
 10
78.01413514196035
 20
95.46015366172854
 10
35.51413523521467
 20
95.46015366172854
 10
35.51413523521467
 20
76.96015370232159
 97
        1
330
9E
 92
        7
 72
     0
 73
     1
 93
        4
 10
35.51413523521467
 20
76.96015370232159
 10
35.51413523521467
 20
72.07211778942346
 10
78.01413514196035
 20
74.25613365625331
 10
78.01413514196035
 20
76.96015370232159
 97
        1
330
9E
 92
        7
 72
     0
 73
     1
 93
        4
 10
63.01413517487365
 20
95.46015366172854
 10
78.01413514196035
 20
95.46015366172854
 10
78.01413514196035
 20
122.4601536024846
 10
63.01413517487365
 20
122.4601536024846
 97
        2
330
A2
330
9E
 75
     1
 76
     1
 52
0.0
 41
10.0
 77
     0
 78
     1
 53
45.0
 43
11.81973164145627
 44
242.180644641641
 45
-2.245064025341125
 46
2.245064025341125
 79
     0
 47
1.498967181451279
 98
        3
 10
67.12871749455707
 20
86.11608392261446
 10
46.41366907447355
 20
75.2485715935213
 10
70.12818118417097
 20
104.4784317783939
1001
GradientColor1ACI
1070
     5
1001
GradientColor2ACI
1070
     2
1001
ACAD
1010
0.0
1020
0.0
1030
0.0
  0
HATCH
  5
CF
330
70
100
AcDbEntity
  8
Schraffur
100
AcDbHatch
 10
0.0
 20
0.0
 30
0.0
210
0.0
220
0.0
230
1.0
  2
ANSI31
 70
     0
 71
     1
 91
        2
 92
        7
 72
     0
 73
     1
 93
        4
 10
151.4449720016577
 20
191.4223930093799
 10
151.4449720016577
 20
186.5343570964818
 10
193.9449719084034
 20
188.7183729633116
 10
193.9449719084034
 20
191.4223930093799
 97
        1
330
96
 92
        7
 72
     0
 73
     1
 93
        4
 10
193.9449719084034
 20
191.4223930093799
 10
193.9449719084034
 20
209.9223929687869
 10
151.4449720016577
 20
209.9223929687869
 10
151.4449720016577
 20
191.4223930093799
 97
        1
330
96
 75
     1
 76
     1
 52
0.0
 41
10.0
 77
     0
 78
     1
 53
45.0
 43
127.7505684078993
 44
267.5905589760503
 45
-2.245064025341125
 46
2.245064025341125
 79
     0
 47
1.498967181451279
 98
        2
 10
157.8804437486631
 20
189.3259219717211
 10
163.2794791182107
 20
200.418279035195
1001
GradientColor1ACI
1070
     5
1001
GradientColor2ACI
1070
     2
1001
ACAD
1010
0.0
1020
0.0
1030
0.0
  0
HATCH
  5
D0
330
70
100
AcDbEntity
  8
Schraffur
100
AcDbHatch
 10
0.0
 20
0.0
 30
0.0
210
0.0
220
0.0
230
1.0
  2
ANSI31
 70
     0
 71
     1
 91
        2
 92
        7
 72
     0
 73
     1
 93
        4
 10
35.51413523521467
 20
190.8111337292038
 10
35.51413523521467
 20
185.9230978163057
 10
78.01413514196035
 20
188.1071136831355
 10
78.01413514196035
 20
190.8111337292038
 97
        1
330
88
 92
        7
 72
     0
 73
     1
 93
        4
 10
78.01413514196035
 20
190.8111337292038
 10
78.01413514196035
 20
209.3111336886108
 10
35.51413523521467
 20
209.3111336886108
 10
35.51413523521467
 20
190.8111337292038
 97
        1
330
88
 75
     1
 76
     1
 52
0.0
 41
10.0
 77
     0
 78
     1
 53
45.0
 43
11.81973164145627
 44
182.2132447462529
 45
-2.245064025341125
 46
2.245064025341125
 79
     0
 47
0.9375298204523165
 98
        2
 10
40.65157822367422
 20
189.1245718847531
 10
44.87261494181429
 20
197.0935751337171
1001
GradientColor1ACI
1070
     5
1001
GradientColor2ACI
1070
     2
1001
ACAD
1010
0.0
1020
0.0
1030
0.0
  0
HATCH
  5
D1
330
70
100
AcDbEntity
  8
Schraffur
100
AcDbHatch
 10
0.0
 20
0.0
 30
0.0
210
0.0
220
0.0
230
1.0
  2
ANSI37
 70
     0
 71
     1
 91
        1
 92
        7
 72
     0
 73
     1
 93
        4
 10
13.01413528458461
 20
122.4601536024846
 10
13.01413528458461
 20
97.4601536573401
 10
53.01413519681583
 20
97.4601536573401
 10
53.01413519681583
 20
122.4601536024846
 97
        1
330
9F
 75
     1
 76
     1
 52
0.0
 41
10.0
 77
     0
 78
     2
 53
45.0
 43
11.81973164145627
 44
242.180644641641
 45
-2.245064025341125
 46
2.245064025341125
 79
     0
 53
135.0
 43
11.81973164145627
 44
242.180644641641
 45
-2.245064025341125
 46
-2.245064025341124
 79
     0
 47
0.9395587487638806
 98
        1
 10
38.04398899000083
 20
111.2001156890531
1001
GradientColor1ACI
1070
     5
1001
GradientColor2ACI
1070
     2
1001
ACAD
1010
0.0
1020
0.0
1030
0.0
  0
HATCH
  5
D2
330
70
100
AcDbEntity
  8
Schraffur
100
AcDbHatch
 10
0.0
 20
0.0
 30
0.0
210
0.0
220
0.0
230
1.0
  2
ANSI31
 70
     0
 71
     1
 91
        3
 92
        7
 72
     0
 73
     1
 93
        4
 10
193.9449689963818
 20
73.65901818599361
 10
193.9449689963818
 20
92.15901814540057
 10
151.4449690896362
 20
92.15901814540057
 10
151.4449690896362
 20
73.65901818599361
 97
        1
330
D3
 92
        7
 72
     0
 73
     1
 93
        4
 10
151.4449690896362
 20
73.65901818599361
 10
151.4449690896362
 20
68.77098227309549
 10
193.9449689963818
 20
70.95499813992535
 10
193.9449689963818
 20
73.65901818599361
 97
        1
330
D3
 92
        7
 72
     0
 73
     1
 93
        4
 10
178.9449690292951
 20
92.15901814540057
 10
193.9449689963818
 20
92.15901814540057
 10
193.9449689963818
 20
119.1590180861566
 10
178.9449690292951
 20
119.1590180861566
 97
        2
330
D8
330
D3
 75
     1
 76
     1
 52
0.0
 41
10.0
 77
     0
 78
     1
 53
45.0
 43
127.7505654958777
 44
238.879509125313
 45
-2.245064025341125
 46
2.245064025341125
 79
     0
 47
1.498967181451279
 98
        3
 10
183.0595513489786
 20
82.81494840628649
 10
162.344502928895
 20
71.94743607719333
 10
186.0590150385924
 20
101.1772962620659
1001
GradientColor1ACI
1070
     5
1001
GradientColor2ACI
1070
     2
1001
ACAD
1010
0.0
1020
0.0
1030
0.0
  0
INSERT
  5
D3
102
{ACAD_REACTORS
330
D2
102
}
330
70
100
AcDbEntity
  8
0
100
AcDbBlockReference
  2
Wand
 10
151.4449690896362
 20
92.15901814540057
 30
0.0
 41
0.0999999997805781
 42
0.0999999997805781
 43
0.0999999997805781
  0
HATCH
  5
D4
330
70
100
AcDbEntity
  8
Schraffur
100
AcDbHatch
 10
0.0
 20
0.0
 30
0.0
210
0.0
220
0.0
230
1.0
  2
ANSI37
 70
     0
 71
     1
 91
        1
 92
        7
 72
     0
 73
     1
 93
        4
 10
128.9449691390061
 20
119.1590180861566
 10
128.9449691390061
 20
94.15901814101212
 10
168.9449690512373
 20
94.15901814101212
 10
168.9449690512373
 20
119.1590180861566
 97
        1
330
D5
 75
     1
 76
     1
 52
0.0
 41
10.0
 77
     0
 78
     2
 53
45.0
 43
127.7505654958777
 44
238.879509125313
 45
-2.245064025341125
 46
2.245064025341125
 79
     0
 53
135.0
 43
127.7505654958777
 44
238.879509125313
 45
-2.245064025341125
 46
-2.245064025341124
 79
     0
 47
0.9395587487638806
 98
        1
 10
153.9748228444223
 20
107.8989801727251
1001
GradientColor1ACI
1070
     5
1001
GradientColor2ACI
1070
     2
1001
ACAD
1010
0.0
1020
0.0
1030
0.0
  0
LWPOLYLINE
  5
D5
102
{ACAD_REACTORS
330
D4
330
185
102
}
330
70
100
AcDbEntity
  8
Linie_dick
100
AcDbPolyline
 90
        4
 70
     1
 43
0.0
 10
128.9449691390061
 20
94.15901814101212
 10
168.9449690512373
 20
94.15901814101212
 10
168.9449690512373
 20
119.1590180861566
 10
128.9449691390061
 20
119.1590180861566
  0
LINE
  5
D6
330
70
100
AcDbEntity
  8
Linie_dick
100
AcDbLine
 10
151.4449690896362
 20
93.15901814320636
 30
0.0
 11
168.9449690512373
 21
93.15901814320636
 31
0.0
  0
LWPOLYLINE
  5
D7
330
70
100
AcDbEntity
  8
Linie_dick
100
AcDbPolyline
 90
        4
 70
     1
 43
0.0
 10
151.4449690896362
 20
94.15901814101212
 10
168.9449690512373
 20
94.15901814101212
 10
168.9449690512373
 20
92.15901814540057
 10
151.4449690896362
 20
92.15901814540057
  0
LWPOLYLINE
  5
D8
102
{ACAD_REACTORS
330
D2
102
}
330
70
100
AcDbEntity
  8
Linie_dick
100
AcDbPolyline
 90
        4
 70
     1
 43
0.0
 10
178.9449690292951
 20
92.15901814540057
 10
193.9449689963818
 20
92.15901814540057
 10
193.9449689963818
 20
119.1590180861566
 10
178.9449690292951
 20
119.1590180861566
  0
LINE
  5
D9
330
70
100
AcDbEntity
  8
Linie_dick
100
AcDbLine
 10
168.9449690512373
 20
119.1590180861566
 30
0.0
 11
178.9449690292951
 21
119.1590180861566
 31
0.0
  0
ARC
  5
DA
330
70
100
AcDbEntity
  8
Schraffur
100
AcDbCircle
 10
170.3829225937776
 20
92.15901814540057
 30
0.0
 40
1.437953542540262
100
AcDbArc
 50
78.09052287067351
 51
180.0
  0
ARC
  5
DB
330
70
100
AcDbEntity
  8
Schraffur
100
AcDbCircle
 10
177.500885038848
 20
93.59697168794081
 30
0.0
 40
1.437953542540262
100
AcDbArc
 50
258.0879031919961
 51
101.9120968031428
  0
LINE
  5
DC
330
70
100
AcDbEntity
  8
Schraffur
100
AcDbLine
 10
177.2042045991744
 20
92.18995672454521
 30
0.0
 11
170.6796673647491
 21
93.56601954248768
 31
0.0
  0
ARC
  5
DD
330
70
100
AcDbEntity
  8
Schraffur
100
AcDbCircle
 10
170.3829225937776
 20
95.03492523048109
 30
0.0
 40
1.437953542540262
100
AcDbArc
 50
78.09052287067351
 51
281.9094771293265
  0
ARC
  5
DE
330
70
100
AcDbEntity
  8
Schraffur
100
AcDbCircle
 10
177.500885038848
 20
96.47287877302138
 30
0.0
 40
1.437953542540262
100
AcDbArc
 50
258.0879031919961
 51
101.9120968031428
  0
LINE
  5
DF
330
70
100
AcDbEntity
  8
Schraffur
100
AcDbLine
 10
177.2042045991744
 20
95.06586380962573
 30
0.0
 11
170.6796673647491
 21
96.44192662756822
 31
0.0
  0
LINE
  5
E0
330
70
100
AcDbEntity
  8
Schraffur
100
AcDbLine
 10
177.2042045991744
 20
95.00398665133644
 30
0.0
 11
170.6796673647491
 21
93.62792383339394
 31
0.0
  0
ARC
  5
E1
330
70
100
AcDbEntity
  8
Schraffur
100
AcDbCircle
 10
170.3829225937776
 20
97.91083231556163
 30
0.0
 40
1.437953542540262
100
AcDbArc
 50
78.09052287067351
 51
281.9094771293265
  0
ARC
  5
E2
330
70
100
AcDbEntity
  8
Schraffur
100
AcDbCircle
 10
177.500885038848
 20
99.34878585810187
 30
0.0
 40
1.437953542540262
100
AcDbArc
 50
258.0879031919961
 51
101.9120968031428
  0
LINE
  5
E3
330
70
100
AcDbEntity
  8
Schraffur
100
AcDbLine
 10
177.2042045991744
 20
97.94177089470627
 30
0.0
 11
170.6796673647491
 21
99.31783371264874
 31
0.0
  0
LINE
  5
E4
330
70
100
AcDbEntity
  8
Schraffur
100
AcDbLine
 10
177.2042045991744
 20
97.87989373641698
 30
0.0
 11
170.6796673647491
 21
96.50383091847452
 31
0.0
  0
ARC
  5
E5
330
70
100
AcDbEntity
  8
Schraffur
100
AcDbCircle
 10
170.3829225937776
 20
100.7867394006421
 30
0.0
 40
1.437953542540262
100
AcDbArc
 50
78.09052287067351
 51
281.9094771293265
  0
ARC
  5
E6
330
70
100
AcDbEntity
  8
Schraffur
100
AcDbCircle
 10
177.500885038848
 20
102.2246929431824
 30
0.0
 40
1.437953542540262
100
AcDbArc
 50
258.0879031919961
 51
101.9120968031428
  0
LINE
  5
E7
330
70
100
AcDbEntity
  8
Schraffur
100
AcDbLine
 10
177.2042045991744
 20
100.8176779797868
 30
0.0
 11
170.6796673647491
 21
102.1937407977293
 31
0.0
  0
LINE
  5
E8
330
70
100
AcDbEntity
  8
Schraffur
100
AcDbLine
 10
177.2042045991744
 20
100.7558008214974
 30
0.0
 11
170.6796673647491
 21
99.379738003555
 31
0.0
  0
ARC
  5
E9
330
70
100
AcDbEntity
  8
Schraffur
100
AcDbCircle
 10
170.3829225937776
 20
103.6626464857226
 30
0.0
 40
1.437953542540262
100
AcDbArc
 50
78.09052287067351
 51
281.9094771293265
  0
ARC
  5
EA
330
70
100
AcDbEntity
  8
Schraffur
100
AcDbCircle
 10
177.500885038848
 20
105.1006000282629
 30
0.0
 40
1.437953542540262
100
AcDbArc
 50
258.0879031919961
 51
101.9120968031428
  0
LINE
  5
EB
330
70
100
AcDbEntity
  8
Schraffur
100
AcDbLine
 10
177.2042045991744
 20
103.6935850648673
 30
0.0
 11
170.6796673647491
 21
105.0696478828098
 31
0.0
  0
LINE
  5
EC
330
70
100
AcDbEntity
  8
Schraffur
100
AcDbLine
 10
177.2042045991744
 20
103.631707906578
 30
0.0
 11
170.6796673647491
 21
102.2556450886355
 31
0.0
  0
ARC
  5
ED
330
70
100
AcDbEntity
  8
Schraffur
100
AcDbCircle
 10
170.3829225937776
 20
106.5385535708032
 30
0.0
 40
1.437953542540262
100
AcDbArc
 50
78.09052287067351
 51
281.9094771293265
  0
ARC
  5
EE
330
70
100
AcDbEntity
  8
Schraffur
100
AcDbCircle
 10
177.500885038848
 20
107.9765071133434
 30
0.0
 40
1.437953542540262
100
AcDbArc
 50
258.0879031919961
 51
101.9120968031428
  0
LINE
  5
EF
330
70
100
AcDbEntity
  8
Schraffur
100
AcDbLine
 10
177.2042045991744
 20
106.5694921499478
 30
0.0
 11
170.6796673647491
 21
107.9455549678903
 31
0.0
  0
LINE
  5
F0
330
70
100
AcDbEntity
  8
Schraffur
100
AcDbLine
 10
177.2042045991744
 20
106.5076149916585
 30
0.0
 11
170.6796673647491
 21
105.131552173716
 31
0.0
  0
ARC
  5
F1
330
70
100
AcDbEntity
  8
Schraffur
100
AcDbCircle
 10
170.3827939319657
 20
109.4144335203599
 30
0.0
 40
1.437953542540262
100
AcDbArc
 50
78.09052287067351
 51
281.9094771293265
  0
ARC
  5
F2
330
70
100
AcDbEntity
  8
Schraffur
100
AcDbCircle
 10
177.5007563770361
 20
110.8523870629002
 30
0.0
 40
1.437953542540262
100
AcDbArc
 50
258.0879031919961
 51
101.9120968031428
  0
LINE
  5
F3
330
70
100
AcDbEntity
  8
Schraffur
100
AcDbLine
 10
177.2040759373624
 20
109.4453720995046
 30
0.0
 11
170.6795387029372
 21
110.821434917447
 31
0.0
  0
LINE
  5
F4
330
70
100
AcDbEntity
  8
Schraffur
100
AcDbLine
 10
177.2040759373624
 20
109.3834949412152
 30
0.0
 11
170.6795387029372
 21
108.0074321232728
 31
0.0
  0
ARC
  5
F5
330
70
100
AcDbEntity
  8
Schraffur
100
AcDbCircle
 10
170.3827939319657
 20
112.2903406054404
 30
0.0
 40
1.437953542540262
100
AcDbArc
 50
78.09052287067351
 51
281.9094771293265
  0
ARC
  5
F6
330
70
100
AcDbEntity
  8
Schraffur
100
AcDbCircle
 10
177.5007563770361
 20
113.7282941479806
 30
0.0
 40
1.437953542540262
100
AcDbArc
 50
258.0879031919961
 51
101.9120968031428
  0
LINE
  5
F7
330
70
100
AcDbEntity
  8
Schraffur
100
AcDbLine
 10
177.2040759373624
 20
112.321279184585
 30
0.0
 11
170.6795387029372
 21
113.6973420025275
 31
0.0
  0
LINE
  5
F8
330
70
100
AcDbEntity
  8
Schraffur
100
AcDbLine
 10
177.2040759373624
 20
112.2594020262958
 30
0.0
 11
170.6795387029372
 21
110.8833392083533
 31
0.0
  0
ARC
  5
F9
330
70
100
AcDbEntity
  8
Schraffur
100
AcDbCircle
 10
170.3826652701537
 20
115.1662205549971
 30
0.0
 40
1.437953542540262
100
AcDbArc
 50
78.09052287067351
 51
281.9094771293265
  0
ARC
  5
FA
330
70
100
AcDbEntity
  8
Schraffur
100
AcDbCircle
 10
177.5006277152242
 20
116.6041740975374
 30
0.0
 40
1.437953542540262
100
AcDbArc
 50
258.0879031919961
 51
101.9120968031428
  0
LINE
  5
FB
330
70
100
AcDbEntity
  8
Schraffur
100
AcDbLine
 10
177.2039472755506
 20
115.1971591341418
 30
0.0
 11
170.6794100411253
 21
116.5732219520843
 31
0.0
  0
LINE
  5
FC
330
70
100
AcDbEntity
  8
Schraffur
100
AcDbLine
 10
177.2039472755506
 20
115.1352819758525
 30
0.0
 11
170.6794100411253
 21
113.75921915791
 31
0.0
  0
ARC
  5
FD
330
70
100
AcDbEntity
  8
Schraffur
100
AcDbCircle
 10
170.3826652701537
 20
118.0421276400777
 30
0.0
 40
1.437953542540262
100
AcDbArc
 50
129.0385644250321
 51
281.9094771293265
  0
ARC
  5
FE
330
70
100
AcDbEntity
  8
Schraffur
100
AcDbCircle
 10
177.5006277152242
 20
119.4800811826179
 30
0.0
 40
1.437953542540262
100
AcDbArc
 50
258.0879031919961
 51
347.0983730361689
  0
LINE
  5
FF
330
70
100
AcDbEntity
  8
Schraffur
100
AcDbLine
 10
177.2039472755506
 20
118.0730662192223
 30
0.0
 11
172.0549574923657
 21
119.1590180861566
 31
0.0
  0
LINE
  5
100
330
70
100
AcDbEntity
  8
Schraffur
100
AcDbLine
 10
177.2039472755506
 20
118.011189060933
 30
0.0
 11
170.6794100411253
 21
116.6351262429905
 31
0.0
  0
LWPOLYLINE
  5
101
330
70
100
AcDbEntity
  8
Linie_Farbig
100
AcDbPolyline
 90
        4
 70
     0
 43
0.0
 10
13.01413528458461
 20
122.4601536024846
 10
53.01413519681583
 20
122.4601536024846
 10
53.01413519681583
 20
95.46015366172854
 10
50.51413520230139
 20
95.46015366172854
  0
LWPOLYLINE
  5
102
330
70
100
AcDbEntity
  8
0
100
AcDbPolyline
 90
        4
 70
     1
 43
0.0
 10
193.9449689963818
 20
119.1590180861566
 10
148.9449690951217
 20
119.1590180861567
 10
148.9449690951217
 20
119.6590180850596
 10
193.9449689963818
 20
119.6590180850595
  0
LWPOLYLINE
  5
103
330
70
100
AcDbEntity
  8
0
100
AcDbPolyline
 90
        4
 70
     1
 43
0.0
 10
193.9449689963818
 20
119.6590180850595
 10
151.4449690896362
 20
119.6590180850595
 10
151.4449690896362
 20
121.1590180817682
 10
193.9449689963818
 20
121.1590180817682
  0
INSERT
  5
104
102
{ACAD_REACTORS
330
105
102
}
330
70
100
AcDbEntity
  8
0
100
AcDbBlockReference
  2
Wand
 10
193.9449689963818
 20
121.1590180817682
 30
0.0
 41
0.0999999997805781
 42
0.0999999997805781
 43
0.0999999997805781
 50
180.0
  0
HATCH
  5
105
330
70
100
AcDbEntity
  8
Schraffur
100
AcDbHatch
 10
0.0
 20
0.0
 30
0.0
210
0.0
220
0.0
230
1.0
  2
ANSI31
 70
     0
 71
     1
 91
        2
 92
        7
 72
     0
 73
     1
 93
        4
 10
193.9449689963818
 20
121.1590180817682
 10
193.9449689963818
 20
139.6590180411751
 10
151.4449690896362
 20
139.6590180411751
 10
151.4449690896362
 20
121.1590180817682
 97
        1
330
104
 92
        7
 72
     0
 73
     1
 93
        4
 10
193.9449689963818
 20
139.6590180411751
 10
193.9449689963818
 20
144.5470539540733
 10
151.4449690896362
 20
142.3630380872434
 10
151.4449690896362
 20
139.6590180411751
 97
        1
330
104
 75
     1
 76
     1
 52
0.0
 41
10.0
 77
     0
 78
     1
 53
45.0
 43
127.7505654958777
 44
364.148236218513
 45
-2.245064025341125
 46
2.245064025341125
 79
     0
 47
1.156389330971018
 98
        2
 10
172.7810205819598
 20
128.3566409888032
 10
186.5490776367012
 20
140.498730167611
1001
GradientColor1ACI
1070
     5
1001
GradientColor2ACI
1070
     2
1001
ACAD
1010
0.0
1020
0.0
1030
0.0
  0
LWPOLYLINE
  5
106
102
{ACAD_REACTORS
330
185
102
}
330
70
100
AcDbEntity
  8
Linie_Farbig
100
AcDbPolyline
 90
        7
 70
     0
 43
0.0
 10
151.4449690896362
 20
142.3630380872434
 10
151.4449690896362
 20
119.6590180850595
 10
148.9449690951217
 20
119.6590180850596
 10
148.9449690951217
 20
119.1590180861566
 10
168.9449690512373
 20
119.1590180861566
 10
168.9449690512373
 20
92.15901814540057
 10
166.4449690567229
 20
92.15901814540057
  0
DIMENSION
  5
107
102
{ACAD_XDICTIONARY
360
108
102
}
102
{ACAD_REACTORS
330
109
102
}
330
70
100
AcDbEntity
  8
Bemassung
100
AcDbDimension
280
     0
  2
*D10
 10
78.01413514196035
 20
173.4316208182649
 30
0.0
 11
56.76413518858751
 21
175.3444673352137
 31
0.0
 70
    32
 71
     5
 42
42.50000000000001
 73
     0
 74
     0
 75
     0
  3
ZZWancor_cm
100
AcDbAlignedDimension
 13
35.51413523521467
 23
185.9230978163057
 33
0.0
 14
78.01413514196035
 24
188.1071136831355
 34
0.0
100
AcDbRotatedDimension
1001
AcadAnnotative
1000
AnnotativeData
1002
{
1070
     1
1070
     0
1002
}
1001
ACAD
1000
DSTYLE
1002
{
1070
     3
1000
z.B. <>cm
1070
   144
1040
1.000000002194219
1070
    40
1040
0.9999999978057806
1070
   279
1070
     0
1070
   289
1070
     3
1070
   174
1070
     0
1070
   175
1070
     0
1070
   172
1070
     1
1002
}
  0
DIMENSION
  5
11A
102
{ACAD_XDICTIONARY
360
11B
102
}
102
{ACAD_REACTORS
330
11C
102
}
330
70
100
AcDbEntity
  8
Bemassung
100
AcDbDimension
280
     0
  2
*D11
 10
27.09706732035853
 20
194.3111337215242
 30
0.0
 11
25.3779094114432
 21
201.8111337050675
 31
0.0
 70
    32
 71
     5
 42
15.00000000000001
 73
     0
 74
     0
 75
     0
  3
ZZWancor_cm
100
AcDbAlignedDimension
 13
35.51413523521467
 23
209.3111336886108
 33
0.0
 14
35.51413523521467
 24
194.3111337215241
 34
0.0
 50
90.0
100
AcDbRotatedDimension
1001
AcadAnnotative
1000
AnnotativeData
1002
{
1070
     1
1070
     0
1002
}
1001
ACAD
1000
DSTYLE
1002
{
1070
   144
1040
1.000000002194219
1070
    40
1040
0.9999999978057806
1070
   279
1070
     0
1070
   289
1070
     3
1070
   174
1070
     0
1070
   175
1070
     0
1070
   172
1070
     1
1002
}
  0
DIMENSION
  5
12C
102
{ACAD_XDICTIONARY
360
12D
102
}
330
70
100
AcDbEntity
  8
Bemassung
100
AcDbDimension
280
     0
  2
*D12
 10
78.01413514196035
 20
59.58064079138272
 30
0.0
 11
56.76413518858751
 21
61.49348730833149
 31
0.0
 70
    32
 71
     5
 42
42.50000000000001
 73
     0
 74
     0
 75
     0
  3
ZZWancor_cm
100
AcDbAlignedDimension
 13
35.51413523521467
 23
72.07211778942346
 33
0.0
 14
78.01413514196035
 24
74.25613365625331
 34
0.0
100
AcDbRotatedDimension
1001
AcadAnnotative
1000
AnnotativeData
1002
{
1070
     1
1070
     0
1002
}
1001
ACAD
1000
DSTYLE
1002
{
1070
     3
1000
z.B. <>cm
1070
   144
1040
1.000000002194219
1070
    40
1040
0.9999999978057806
1070
   279
1070
     0
1070
   289
1070
     3
1070
   174
1070
     0
1070
   175
1070
     0
1070
   172
1070
     1
1002
}
  0
DIMENSION
  5
13D
102
{ACAD_XDICTIONARY
360
13E
102
}
330
70
100
AcDbEntity
  8
Bemassung
100
AcDbDimension
280
     0
  2
*D13
 10
193.9449689963818
 20
56.27950527505475
 30
0.0
 11
172.694969043009
 21
58.19235179200351
 31
0.0
 70
    32
 71
     5
 42
42.5
 73
     0
 74
     0
 75
     0
  3
ZZWancor_cm
100
AcDbAlignedDimension
 13
151.4449690896362
 23
68.77098227309549
 33
0.0
 14
193.9449689963818
 24
70.95499813992535
 34
0.0
100
AcDbRotatedDimension
1001
AcadAnnotative
1000
AnnotativeData
1002
{
1070
     1
1070
     0
1002
}
1001
ACAD
1000
DSTYLE
1002
{
1070
     3
1000
z.B. <>cm
1070
   144
1040
1.000000002194219
1070
    40
1040
0.9999999978057806
1070
   279
1070
     0
1070
   289
1070
     3
1070
   174
1070
     0
1070
   175
1070
     0
1070
   172
1070
     1
1002
}
  0
DIMENSION
  5
14E
102
{ACAD_XDICTIONARY
360
14F
102
}
330
70
100
AcDbEntity
  8
Bemassung
100
AcDbDimension
280
     0
  2
*D14
 10
193.9449719084034
 20
174.0428800984411
 30
0.0
 11
172.6949719550306
 21
175.9557266153899
 31
0.0
 70
    32
 71
     5
 42
42.5
 73
     0
 74
     0
 75
     0
  3
ZZWancor_cm
100
AcDbAlignedDimension
 13
151.4449720016577
 23
186.5343570964818
 33
0.0
 14
193.9449719084034
 24
188.7183729633117
 34
0.0
100
AcDbRotatedDimension
1001
AcadAnnotative
1000
AnnotativeData
1002
{
1070
     1
1070
     0
1002
}
1001
ACAD
1000
DSTYLE
1002
{
1070
     3
1000
z.B. <>cm
1070
   144
1040
1.000000002194219
1070
    40
1040
0.9999999978057806
1070
   279
1070
     0
1070
   289
1070
     3
1070
   174
1070
     0
1070
   175
1070
     0
1070
   172
1070
     1
1002
}
  0
DIMENSION
  5
15F
102
{ACAD_XDICTIONARY
360
160
102
}
102
{ACAD_REACTORS
330
161
102
}
330
70
100
AcDbEntity
  8
Bemassung
100
AcDbDimension
280
     0
  2
*D15
 10
168.9449719632589
 20
221.513812692193
 30
0.0
 11
159.3840732802812
 21
221.513812692193
 31
0.0
 70
   160
 71
     5
 42
2.500000000000016
 73
     0
 74
     0
 75
     0
  3
ZZWancor_cm
100
AcDbAlignedDimension
 13
166.4449719687444
 23
209.9223929687869
 33
0.0
 14
168.9449719632589
 24
209.9223929687869
 34
0.0
100
AcDbRotatedDimension
1001
AcadAnnotative
1000
AnnotativeData
1002
{
1070
     1
1070
     0
1002
}
1001
ACAD
1000
DSTYLE
1002
{
1070
    40
1040
0.9999999978057806
1070
   144
1040
1.000000002194219
1002
}
  0
DIMENSION
  5
172
102
{ACAD_XDICTIONARY
360
173
102
}
102
{ACAD_REACTORS
330
174
102
}
330
70
100
AcDbEntity
  8
Bemassung
100
AcDbDimension
280
     0
  2
*D16
 10
168.9449719632589
 20
245.6168628014478
 30
0.0
 11
160.1949719824583
 21
247.5297093183967
 31
0.0
 70
    32
 71
     5
 42
17.5
 73
     0
 74
     0
 75
     0
  3
ZZWancor_cm
100
AcDbAlignedDimension
 13
151.4449720016577
 23
211.9223929643985
 33
0.0
 14
168.9449719632589
 24
239.9223929029603
 34
0.0
100
AcDbRotatedDimension
1001
AcadAnnotative
1000
AnnotativeData
1002
{
1070
     1
1070
     0
1002
}
1001
ACAD
1000
DSTYLE
1002
{
1070
     3
1000
z.B. <>cm
1070
   144
1040
1.000000002194219
1070
    40
1040
0.9999999978057806
1070
   279
1070
     0
1070
   289
1070
     3
1070
   174
1070
     0
1070
   175
1070
     0
1070
   172
1070
     1
1002
}
  0
LINE
  5
184
102
{ACAD_REACTORS
330
185
102
}
330
70
100
AcDbEntity
  8
Linie_dick
100
AcDbLine
 10
151.4449690896362
 20
123.7454831236278
 30
0.0
 11
146.8585040521649
 21
119.1590180861566
 31
0.0
  0
HATCH
  5
185
330
70
100
AcDbEntity
  8
Schraffur
100
AcDbHatch
 10
0.0
 20
0.0
 30
0.0
210
0.0
220
0.0
230
1.0
  2
AR-SAND
 70
     0
 71
     1
 91
        1
 92
        7
 72
     0
 73
     1
 93
        5
 10
151.4449690896362
 20
123.7454831236278
 10
146.8585040521649
 20
119.1590180861566
 10
148.9449690951217
 20
119.1590180861566
 10
148.9449690951217
 20
119.6590180850596
 10
151.4449690896362
 20
119.6590180850595
 97
        3
330
184
330
D5
330
106
 75
     1
 76
     1
 52
0.0
 41
0.2
 77
     0
 78
     4
 53
37.5
 43
-34.18157991427575
 44
182.2132447462529
 45
-0.0320006258494645
 46
0.9788264725109247
 79
     6
 49
0.0
 49
-0.7721599983057117
 49
0.0
 49
-0.8635999981050723
 49
0.0
 49
-0.8254999981886721
 53
7.499999999999999
 43
-34.18157991427575
 44
182.2132447462529
 45
0.8990465643032999
 46
1.433650197990965
 79
     6
 49
0.0
 49
-0.416559999085976
 49
0.0
 49
-0.6959599984729113
 49
0.0
 49
-0.2666999994148017
 53
327.5
 43
-34.80641991290471
 44
182.2132447462529
 45
1.581984737011694
 46
0.0028743693507845
 79
     6
 49
0.0
 49
-0.2539999994426683
 49
0.0
 49
-0.9143999979936058
 49
0.0
 49
-1.193799997380541
 53
317.5
 43
-34.80641991290471
 44
182.2132447462529
 45
1.527112901593773
 46
0.445858645536121
 79
     6
 49
0.0
 49
-0.1269999997213341
 49
0.0
 49
-0.5994399986846971
 49
0.0
 49
-0.6857999984952045
 47
0.4803728688077272
 98
        1
 10
149.8956190243309
 20
120.9988154825296
1001
GradientColor1ACI
1070
     5
1001
GradientColor2ACI
1070
     2
1001
ACAD
1010
0.0
1020
0.0
1030
0.0
  0
ENDSEC
  0
SECTION
  2
OBJECTS
  0
DICTIONARY
  5
C
330
0
100
AcDbDictionary
281
     1
  3
ACAD_CIP_PREVIOUS_PRODUCT_INFO
350
2EE
  3
ACAD_COLOR
350
63
  3
ACAD_DETAILVIEWSTYLE
350
6A
  3
ACAD_GROUP
350
D
  3
ACAD_LAYOUT
350
62
  3
ACAD_MATERIAL
350
10
  3
ACAD_MLEADERSTYLE
350
66
  3
ACAD_MLINESTYLE
350
5F
  3
ACAD_PLOTSETTINGS
350
61
  3
ACAD_PLOTSTYLENAME
350
E
  3
ACAD_SCALELIST
350
42
  3
ACAD_SECTIONVIEWSTYLE
350
68
  3
ACAD_TABLESTYLE
350
64
  3
ACAD_VISUALSTYLE
350
29
  3
ACDB_RECOMPOSE_DATA
350
33C
  3
AcDbVariableDictionary
350
2DF
  0
DICTIONARY
  5
332
330
2
100
AcDbDictionary
280
     1
281
     1
  3
ACAD_LAYERSTATES
360
333
  0
DICTIONARY
  5
29D
330
70
100
AcDbDictionary
280
     1
281
     1
  3
ACAD_SORTENTS
360
29E
  0
DICTIONARY
  5
8A
330
89
100
AcDbDictionary
280
     1
281
     1
  0
DICTIONARY
  5
108
330
107
100
AcDbDictionary
280
     1
281
     1
  3
ACAD_DIMASSOC
360
109
  3
AcDbContextDataManager
360
10A
  0
DICTIONARY
  5
11B
330
11A
100
AcDbDictionary
280
     1
281
     1
  3
ACAD_DIMASSOC
360
11C
  3
AcDbContextDataManager
360
11D
  0
DICTIONARY
  5
12D
330
12C
100
AcDbDictionary
280
     1
281
     1
  3
AcDbContextDataManager
360
12E
  0
DICTIONARY
  5
13E
330
13D
100
AcDbDictionary
280
     1
281
     1
  3
AcDbContextDataManager
360
13F
  0
DICTIONARY
  5
14F
330
14E
100
AcDbDictionary
280
     1
281
     1
  3
AcDbContextDataManager
360
150
  0
DICTIONARY
  5
160
330
15F
100
AcDbDictionary
280
     1
281
     1
  3
ACAD_DIMASSOC
360
161
  3
AcDbContextDataManager
360
162
  0
DICTIONARY
  5
173
330
172
100
AcDbDictionary
280
     1
281
     1
  3
ACAD_DIMASSOC
360
174
  3
AcDbContextDataManager
360
175
  0
XRECORD
  5
2EE
102
{ACAD_REACTORS
330
C
102
}
330
C
100
AcDbXrecord
280
     1
300
ACD
300
2022
300

  0
DICTIONARY
  5
63
102
{ACAD_REACTORS
330
C
102
}
330
C
100
AcDbDictionary
281
     1
  0
DICTIONARY
  5
6A
102
{ACAD_REACTORS
330
C
102
}
330
C
100
AcDbDictionary
281
     1
  3
Imperial24
350
6B
  3
Metric50
350
2E8
  0
DICTIONARY
  5
D
102
{ACAD_REACTORS
330
C
102
}
330
C
100
AcDbDictionary
281
     1
  0
DICTIONARY
  5
62
102
{ACAD_REACTORS
330
C
102
}
330
C
100
AcDbDictionary
281
     1
  3
Layout1
350
6F
  3
Layout2
350
77
  3
Model
350
73
  0
DICTIONARY
  5
10
102
{ACAD_REACTORS
330
C
102
}
330
C
100
AcDbDictionary
281
     1
  3
ByBlock
350
19
  3
ByLayer
350
11
  3
Global
350
21
  0
DICTIONARY
  5
66
102
{ACAD_REACTORS
330
C
102
}
330
C
100
AcDbDictionary
281
     1
  3
Standard
350
67
  0
DICTIONARY
  5
5F
102
{ACAD_REACTORS
330
C
102
}
330
C
100
AcDbDictionary
281
     1
  3
Standard
350
60
  0
DICTIONARY
  5
61
102
{ACAD_REACTORS
330
C
102
}
330
C
100
AcDbDictionary
281
     1
  0
ACDBDICTIONARYWDFLT
  5
E
102
{ACAD_REACTORS
330
C
102
}
330
C
100
AcDbDictionary
281
     1
  3
Normal
350
F
100
AcDbDictionaryWithDefault
340
F
  0
DICTIONARY
  5
42
102
{ACAD_REACTORS
330
C
102
}
330
C
100
AcDbDictionary
281
     1
  3
*A1
350
86
  3
A0
350
43
  3
A1
350
44
  3
A2
350
45
  3
A3
350
46
  3
A4
350
47
  3
A5
350
48
  3
A6
350
49
  3
A7
350
4A
  3
A8
350
4B
  3
A9
350
4C
  3
B0
350
4D
  3
B1
350
4E
  3
B2
350
4F
  3
B3
350
50
  3
B4
350
51
  3
B5
350
52
  3
B6
350
53
  0
DICTIONARY
  5
68
102
{ACAD_REACTORS
330
C
102
}
330
C
100
AcDbDictionary
281
     1
  3
Imperial24
350
69
  3
Metric50
350
2E7
  0
DICTIONARY
  5
64
102
{ACAD_REACTORS
330
C
102
}
330
C
100
AcDbDictionary
281
     1
  3
Standard
350
65
  0
DICTIONARY
  5
29
102
{ACAD_REACTORS
330
C
102
}
330
C
100
AcDbDictionary
281
     1
  3
2dWireframe
350
2F
  3
Basic
350
2E
  3
Brighten
350
35
  3
ColorChange
350
39
  3
Conceptual
350
32
  3
Dim
350
34
  3
EdgeColorOff
350
41
  3
Facepattern
350
38
  3
Flat
350
2A
  3
FlatWithEdges
350
2B
  3
Gouraud
350
2C
  3
GouraudWithEdges
350
2D
  3
Hidden
350
31
  3
JitterOff
350
3F
  3
Linepattern
350
37
  3
OverhangOff
350
40
  3
Realistic
350
33
  3
Shaded
350
3E
  3
Shaded with edges
350
3D
  3
Shades of Gray
350
3A
  3
Sketchy
350
3B
  3
Thicken
350
36
  3
Wireframe
350
30
  3
X-Ray
350
3C
  0
XRECORD
  5
33C
102
{ACAD_REACTORS
330
C
102
}
330
C
100
AcDbXrecord
280
     1
 90
        1
330
65
330
107
330
11A
330
12C
330
13D
330
14E
330
15F
330
172
  0
DICTIONARY
  5
2DF
102
{ACAD_REACTORS
330
C
102
}
330
C
100
AcDbDictionary
281
     1
  3
ANNOALLVISIBLE
350
2E4
  3
CANNOSCALE
350
2E5
  3
CMLEADERSTYLE
350
2E1
  3
CTABLESTYLE
350
2E0
  3
CVIEWDETAILSTYLE
350
2E2
  3
CVIEWSECTIONSTYLE
350
2E3
  0
DICTIONARY
  5
333
102
{ACAD_REACTORS
330
332
102
}
330
332
100
AcDbDictionary
281
     1
  0
SORTENTSTABLE
  5
29E
102
{ACAD_REACTORS
330
29D
102
}
330
29D
100
AcDbSortentsTable
330
70
331
88
  5
96
331
96
  5
98
331
97
  5
99
331
98
  5
9A
331
99
  5
9B
331
9A
  5
9D
331
9B
  5
9E
331
9D
  5
9F
331
9E
  5
A1
331
9F
  5
A3
331
A0
  5
A4
331
A1
  5
A6
331
A2
  5
A7
331
A3
  5
A8
331
A4
  5
A9
331
A6
  5
AA
331
A7
  5
AB
331
A8
  5
AC
331
A9
  5
AD
331
AA
  5
AE
331
AB
  5
AF
331
AC
  5
B0
331
AD
  5
B1
331
AE
  5
B2
331
AF
  5
B3
331
B0
  5
B4
331
B1
  5
B5
331
B2
  5
B6
331
B3
  5
B7
331
B4
  5
B8
331
B5
  5
B9
331
B6
  5
BA
331
B7
  5
BB
331
B8
  5
BC
331
B9
  5
BD
331
BA
  5
BE
331
BB
  5
BF
331
BC
  5
C0
331
BD
  5
C1
331
BE
  5
C2
331
BF
  5
C3
331
C0
  5
C4
331
C1
  5
C5
331
C2
  5
C6
331
C3
  5
C7
331
C4
  5
C8
331
C5
  5
C9
331
C6
  5
CA
331
C7
  5
CB
331
C8
  5
CC
331
C9
  5
CF
331
CA
  5
D0
331
CB
  5
D1
331
CC
  5
A0
331
CF
  5
97
331
D0
  5
88
331
D1
  5
A2
331
D5
  5
D6
331
D6
  5
D7
331
D7
  5
D8
331
D8
  5
D9
331
D9
  5
DA
331
DA
  5
DB
331
DB
  5
DC
331
DC
  5
DD
331
DD
  5
DE
331
DE
  5
DF
331
DF
  5
E0
331
E0
  5
E1
331
E1
  5
E2
331
E2
  5
E3
331
E3
  5
E4
331
E4
  5
E5
331
E5
  5
E6
331
E6
  5
E7
331
E7
  5
E8
331
E8
  5
E9
331
E9
  5
EA
331
EA
  5
EB
331
EB
  5
EC
331
EC
  5
ED
331
ED
  5
EE
331
EE
  5
EF
331
EF
  5
F0
331
F0
  5
F1
331
F1
  5
F2
331
F2
  5
F3
331
F3
  5
F4
331
F4
  5
F5
331
F5
  5
F6
331
F6
  5
F7
331
F7
  5
F8
331
F8
  5
F9
331
F9
  5
FA
331
FA
  5
FB
331
FB
  5
FC
331
FC
  5
FD
331
FD
  5
FE
331
FE
  5
FF
331
FF
  5
100
331
100
  5
101
331
101
  5
102
331
102
  5
103
331
103
  5
104
331
104
  5
106
331
106
  5
107
331
107
  5
11A
331
11A
  5
12C
331
12C
  5
13D
331
13D
  5
14E
331
14E
  5
15F
331
15F
  5
172
331
172
  5
184
331
184
  5
185
331
185
  5
D5
  0
DIMASSOC
  5
109
102
{ACAD_REACTORS
330
108
102
}
330
108
100
AcDbDimAssoc
330
107
 90
        3
 70
     0
 71
     0
  1
AcDbOsnapPointRef
 72
    13
331
88
331
91
 73
     2
 91
        1
 40
0.0
 10
696.957153024181
 20
37.0985307819301
 30
0.0
 75
     0
  1
AcDbOsnapPointRef
 72
     6
331
88
331
8C
 73
     2
 91
        0
 40
0.9554921811558866
 10
1121.957153024181
 20
58.93868949815079
 30
0.0
332
88
332
91
 74
     2
 92
        3
 75
     0
  0
DICTIONARY
  5
10A
102
{ACAD_REACTORS
330
108
102
}
330
108
100
AcDbDictionary
281
     1
  3
ACDB_ANNOTATIONSCALES
350
10C
  0
DIMASSOC
  5
11C
102
{ACAD_REACTORS
330
11B
102
}
330
11B
100
AcDbDimAssoc
330
11A
 90
        3
 70
     0
 71
     0
  1
AcDbOsnapPointRef
 72
     6
331
9B
 73
     2
 91
        2
 40
0.0
 10
696.957153024181
 20
270.9788900181656
 30
0.0
332
88
332
91
 74
     2
 92
        1
 75
     0
  1
AcDbOsnapPointRef
 72
    13
331
9B
 73
     2
 91
        1
 40
0.0
 10
696.957153024181
 20
120.9788900181656
 30
0.0
 75
     0
  0
DICTIONARY
  5
11D
102
{ACAD_REACTORS
330
11B
102
}
330
11B
100
AcDbDictionary
281
     1
  3
ACDB_ANNOTATIONSCALES
350
11E
  0
DICTIONARY
  5
12E
102
{ACAD_REACTORS
330
12D
102
}
330
12D
100
AcDbDictionary
281
     1
  3
ACDB_ANNOTATIONSCALES
350
12F
  0
DICTIONARY
  5
13F
102
{ACAD_REACTORS
330
13E
102
}
330
13E
100
AcDbDictionary
281
     1
  3
ACDB_ANNOTATIONSCALES
350
140
  0
DICTIONARY
  5
150
102
{ACAD_REACTORS
330
14F
102
}
330
14F
100
AcDbDictionary
281
     1
  3
ACDB_ANNOTATIONSCALES
350
151
  0
DIMASSOC
  5
161
102
{ACAD_REACTORS
330
160
102
}
330
160
100
AcDbDimAssoc
330
15F
 90
        3
 70
     0
 71
     0
  1
AcDbOsnapPointRef
 72
    13
331
9D
 73
     2
 91
        1
 40
0.0
 10
2006.265523232389
 20
277.0914828333389
 30
0.0
 75
     0
  1
AcDbOsnapPointRef
 72
     6
331
9D
 73
     2
 91
        1
 40
0.0909090909090909
 10
2031.265523232389
 20
277.0914828333389
 30
0.0
332
98
 74
     2
 92
        4
 75
     0
  0
DICTIONARY
  5
162
102
{ACAD_REACTORS
330
160
102
}
330
160
100
AcDbDictionary
281
     1
  3
ACDB_ANNOTATIONSCALES
350
163
  0
DIMASSOC
  5
174
102
{ACAD_REACTORS
330
173
102
}
330
173
100
AcDbDimAssoc
330
172
 90
        3
 70
     0
 71
     0
  1
AcDbOsnapPointRef
 72
    13
331
99
 73
     2
 91
        0
 40
0.0
 10
1856.265523232389
 20
297.0914828333389
 30
0.0
 75
     0
  1
AcDbOsnapPointRef
 72
     1
331
98
 73
     2
 91
        3
 40
1.0
 10
2031.265523232389
 20
577.0914828333388
 30
0.0
 75
     0
  0
DICTIONARY
  5
175
102
{ACAD_REACTORS
330
173
102
}
330
173
100
AcDbDictionary
281
     1
  3
ACDB_ANNOTATIONSCALES
350
176
  0
ACDBDETAILVIEWSTYLE
  5
6B
102
{ACAD_REACTORS
330
6A
102
}
330
6A
100
AcDbModelDocViewStyle
 70
     0
  3
Imperial24
290
     1
300
Imperial24
 90
        0
100
AcDbDetailViewStyle
 70
     0
 71
     0
 90
        3
 71
     1
340
55
 62
   256
 40
0.24
340
0
 62
   256
 40
0.24
300

 40
0.36
280
     3
 71
     2
340
5D
 90
       25
 62
   256
 71
     3
340
55
 62
   256
 40
0.24
 90
        1
 40
0.75
 90
        1
300
%<\AcVar ViewType \f "%tc1">% %<\AcVar ViewDetailId>%\PVARIA %<\AcVar ViewScale \f "%sn">%
 71
     4
340
5D
 90
       25
 62
   256
340
5D
 90
       25
 62
   256
280
     0
  0
ACDBDETAILVIEWSTYLE
  5
2E8
102
{ACAD_REACTORS
330
6A
102
}
330
6A
100
AcDbModelDocViewStyle
 70
     0
  3
Metric50
290
     1
300
Metric50
 90
        0
100
AcDbDetailViewStyle
 70
     0
 71
     0
 90
        3
 71
     1
340
55
 62
   256
 40
5.0
340
0
 62
   256
 40
5.0
300

 40
0.0
280
     1
 71
     2
340
5D
 90
       25
 62
   256
 71
     3
340
55
 62
   256
 40
5.0
 90
        0
 40
15.0
 90
        1
300
%<\AcVar ViewDetailId>% (%<\AcVar ViewScale \f "%sn">%)
 71
     4
340
5D
 90
       25
 62
   256
340
5D
 90
       25
 62
   256
280
     0
  0
LAYOUT
  5
6F
102
{ACAD_REACTORS
330
62
102
}
330
62
100
AcDbPlotSettings
  1

  2
PDF24
  4

  6

 40
0.0
 41
0.0
 42
0.0
 43
0.0
 44
0.0
 45
0.0
 46
0.0
 47
0.0
 48
0.0
 49
0.0
140
0.0
141
0.0
142
1.0
143
1.0
 70
   688
 72
     0
 73
     0
 74
     5
  7

 75
    16
147
1.0
 76
     0
 77
     2
 78
   300
148
0.0
149
0.0
100
AcDbLayout
  1
Layout1
 70
     1
 71
     1
 10
0.0
 20
0.0
 11
12.0
 21
9.0
 12
0.0
 22
0.0
 32
0.0
 14
1.000000000000000E+20
 24
1.000000000000000E+20
 34
1.000000000000000E+20
 15
-1.000000000000000E+20
 25
-1.000000000000000E+20
 35
-1.000000000000000E+20
146
0.0
 13
0.0
 23
0.0
 33
0.0
 16
1.0
 26
0.0
 36
0.0
 17
0.0
 27
1.0
 37
0.0
 76
     0
330
6C
  0
LAYOUT
  5
77
102
{ACAD_REACTORS
330
62
102
}
330
62
100
AcDbPlotSettings
  1

  2
PDF24
  4

  6

 40
0.0
 41
0.0
 42
0.0
 43
0.0
 44
0.0
 45
0.0
 46
0.0
 47
0.0
 48
0.0
 49
0.0
140
0.0
141
0.0
142
1.0
143
1.0
 70
   688
 72
     0
 73
     0
 74
     5
  7

 75
    16
147
1.0
 76
     0
 77
     2
 78
   300
148
0.0
149
0.0
100
AcDbLayout
  1
Layout2
 70
     1
 71
     2
 10
0.0
 20
0.0
 11
12.0
 21
9.0
 12
0.0
 22
0.0
 32
0.0
 14
0.0
 24
0.0
 34
0.0
 15
0.0
 25
0.0
 35
0.0
146
0.0
 13
0.0
 23
0.0
 33
0.0
 16
1.0
 26
0.0
 36
0.0
 17
0.0
 27
1.0
 37
0.0
 76
     0
330
74
  0
LAYOUT
  5
73
102
{ACAD_REACTORS
330
62
102
}
330
62
100
AcDbPlotSettings
  1

  2
PDF24
  4
A4
  6

 40
0.0
 41
0.0
 42
0.1113433837890625
 43
0.0
 44
210.0
 45
297.0
 46
0.0
 47
0.0
 48
0.0
 49
0.0
140
0.0
141
0.0
142
1.0
143
4.270107550525094
 70
 11952
 72
     1
 73
     0
 74
     0
  7

 75
     0
147
0.2341861389128314
 76
     0
 77
     2
 78
   300
148
232.2360275264562
149
96.76627921616109
100
AcDbLayout
  1
Model
 70
     1
 71
     0
 10
0.0
 20
0.0
 11
12.0
 21
9.0
 12
0.0
 22
0.0
 32
0.0
 14
0.0
 24
0.0
 34
0.0
 15
0.0
 25
0.0
 35
0.0
146
0.0
 13
0.0
 23
0.0
 33
0.0
 16
1.0
 26
0.0
 36
0.0
 17
0.0
 27
1.0
 37
0.0
 76
     0
330
70
331
57
1001
ACAD_PSEXT
1000
PDF24
1000
PDF24
1000
\\.\pipe\PDFPrint
1000
PDF24 Printer
1070
     0
  0
MATERIAL
  5
19
102
{ACAD_XDICTIONARY
360
1A
102
}
102
{ACAD_REACTORS
330
10
102
}
330
10
100
AcDbMaterial
  1
ByBlock
 72
     0
 43
0.0208333333333333
 43
0.0
 43
0.0
 43
0.0
 43
0.0
 43
0.0208333333333333
 43
0.0
 43
0.0
 43
0.0
 43
0.0
 43
1.0
 43
0.0
 43
0.0
 43
0.0
 43
0.0
 43
1.0
 77
     0
 47
0.0208333333333333
 47
0.0
 47
0.0
 47
0.0
 47
0.0
 47
0.0208333333333333
 47
0.0
 47
0.0
 47
0.0
 47
0.0
 47
1.0
 47
0.0
 47
0.0
 47
0.0
 47
0.0
 47
1.0
171
     0
 49
0.0208333333333333
 49
0.0
 49
0.0
 49
0.0
 49
0.0
 49
0.0208333333333333
 49
0.0
 49
0.0
 49
0.0
 49
0.0
 49
1.0
 49
0.0
 49
0.0
 49
0.0
 49
0.0
 49
1.0
175
     0
142
0.0208333333333333
142
0.0
142
0.0
142
0.0
142
0.0
142
0.0208333333333333
142
0.0
142
0.0
142
0.0
142
0.0
142
1.0
142
0.0
142
0.0
142
0.0
142
0.0
142
1.0
179
     0
144
0.0208333333333333
144
0.0
144
0.0
144
0.0
144
0.0
144
0.0208333333333333
144
0.0
144
0.0
144
0.0
144
0.0
144
1.0
144
0.0
144
0.0
144
0.0
144
0.0
144
1.0
147
0.0208333333333333
147
0.0
147
0.0
147
0.0
147
0.0
147
0.0208333333333333
147
0.0
147
0.0
147
0.0
147
0.0
147
1.0
147
0.0
147
0.0
147
0.0
147
0.0
147
1.0
  0
MATERIAL
  5
11
102
{ACAD_XDICTIONARY
360
12
102
}
102
{ACAD_REACTORS
330
10
102
}
330
10
100
AcDbMaterial
  1
ByLayer
 72
     0
 43
0.0208333333333333
 43
0.0
 43
0.0
 43
0.0
 43
0.0
 43
0.0208333333333333
 43
0.0
 43
0.0
 43
0.0
 43
0.0
 43
1.0
 43
0.0
 43
0.0
 43
0.0
 43
0.0
 43
1.0
 77
     0
 47
0.0208333333333333
 47
0.0
 47
0.0
 47
0.0
 47
0.0
 47
0.0208333333333333
 47
0.0
 47
0.0
 47
0.0
 47
0.0
 47
1.0
 47
0.0
 47
0.0
 47
0.0
 47
0.0
 47
1.0
171
     0
 49
0.0208333333333333
 49
0.0
 49
0.0
 49
0.0
 49
0.0
 49
0.0208333333333333
 49
0.0
 49
0.0
 49
0.0
 49
0.0
 49
1.0
 49
0.0
 49
0.0
 49
0.0
 49
0.0
 49
1.0
175
     0
142
0.0208333333333333
142
0.0
142
0.0
142
0.0
142
0.0
142
0.0208333333333333
142
0.0
142
0.0
142
0.0
142
0.0
142
1.0
142
0.0
142
0.0
142
0.0
142
0.0
142
1.0
179
     0
144
0.0208333333333333
144
0.0
144
0.0
144
0.0
144
0.0
144
0.0208333333333333
144
0.0
144
0.0
144
0.0
144
0.0
144
1.0
144
0.0
144
0.0
144
0.0
144
0.0
144
1.0
147
0.0208333333333333
147
0.0
147
0.0
147
0.0
147
0.0
147
0.0208333333333333
147
0.0
147
0.0
147
0.0
147
0.0
147
1.0
147
0.0
147
0.0
147
0.0
147
0.0
147
1.0
  0
MATERIAL
  5
21
102
{ACAD_XDICTIONARY
360
22
102
}
102
{ACAD_REACTORS
330
10
102
}
330
10
100
AcDbMaterial
  1
Global
 72
     0
 43
0.0208333333333333
 43
0.0
 43
0.0
 43
0.0
 43
0.0
 43
0.0208333333333333
 43
0.0
 43
0.0
 43
0.0
 43
0.0
 43
1.0
 43
0.0
 43
0.0
 43
0.0
 43
0.0
 43
1.0
 77
     0
 47
0.0208333333333333
 47
0.0
 47
0.0
 47
0.0
 47
0.0
 47
0.0208333333333333
 47
0.0
 47
0.0
 47
0.0
 47
0.0
 47
1.0
 47
0.0
 47
0.0
 47
0.0
 47
0.0
 47
1.0
171
     0
 49
0.0208333333333333
 49
0.0
 49
0.0
 49
0.0
 49
0.0
 49
0.0208333333333333
 49
0.0
 49
0.0
 49
0.0
 49
0.0
 49
1.0
 49
0.0
 49
0.0
 49
0.0
 49
0.0
 49
1.0
175
     0
142
0.0208333333333333
142
0.0
142
0.0
142
0.0
142
0.0
142
0.0208333333333333
142
0.0
142
0.0
142
0.0
142
0.0
142
1.0
142
0.0
142
0.0
142
0.0
142
0.0
142
1.0
179
     0
144
0.0208333333333333
144
0.0
144
0.0
144
0.0
144
0.0
144
0.0208333333333333
144
0.0
144
0.0
144
0.0
144
0.0
144
1.0
144
0.0
144
0.0
144
0.0
144
0.0
144
1.0
147
0.0208333333333333
147
0.0
147
0.0
147
0.0
147
0.0
147
0.0208333333333333
147
0.0
147
0.0
147
0.0
147
0.0
147
1.0
147
0.0
147
0.0
147
0.0
147
0.0
147
1.0
  0
MLEADERSTYLE
  5
67
102
{ACAD_REACTORS
330
66
102
}
330
66
100
AcDbMLeaderStyle
179
     2
170
     2
171
     1
172
     0
 90
        2
 40
0.0
 41
0.0
173
     1
 91
-1056964608
340
5B
 92
       -2
290
     1
 42
0.09
291
     1
 43
0.36
  3
Standard
 44
0.18
300

342
55
174
     1
178
     6
175
     1
176
     0
 93
-1056964608
 45
0.18
292
     0
297
     0
 46
0.18
 94
-1056964608
 47
1.0
 49
1.0
140
1.0
293
     1
141
0.0
294
     1
177
     0
142
1.0
295
     1
296
     0
143
0.125
271
     0
272
     9
273
     9
298
     1
  0
MLINESTYLE
  5
60
102
{ACAD_REACTORS
330
5F
102
}
330
5F
100
AcDbMlineStyle
  2
STANDARD
 70
     0
  3

 62
   256
 51
90.0
 52
90.0
 71
     2
 49
0.5
 62
   256
  6
BYLAYER
 49
-0.5
 62
   256
  6
BYLAYER
  0
ACDBPLACEHOLDER
  5
F
102
{ACAD_REACTORS
330
E
102
}
330
E
  0
SCALE
  5
86
102
{ACAD_REACTORS
330
42
102
}
330
42
100
AcDbScale
 70
     0
300
1:15
140
1.0
141
15.0
290
     0
  0
SCALE
  5
43
102
{ACAD_REACTORS
330
42
102
}
330
42
100
AcDbScale
 70
     0
300
1:1
140
1.0
141
1.0
290
     1
  0
SCALE
  5
44
102
{ACAD_REACTORS
330
42
102
}
330
42
100
AcDbScale
 70
     0
300
1:2
140
1.0
141
2.0
290
     0
  0
SCALE
  5
45
102
{ACAD_REACTORS
330
42
102
}
330
42
100
AcDbScale
 70
     0
300
1:4
140
1.0
141
4.0
290
     0
  0
SCALE
  5
46
102
{ACAD_REACTORS
330
42
102
}
330
42
100
AcDbScale
 70
     0
300
1:5
140
1.0
141
5.0
290
     0
  0
SCALE
  5
47
102
{ACAD_REACTORS
330
42
102
}
330
42
100
AcDbScale
 70
     0
300
1:8
140
1.0
141
8.0
290
     0
  0
SCALE
  5
48
102
{ACAD_REACTORS
330
42
102
}
330
42
100
AcDbScale
 70
     0
300
1:10
140
1.0
141
10.0
290
     0
  0
SCALE
  5
49
102
{ACAD_REACTORS
330
42
102
}
330
42
100
AcDbScale
 70
     0
300
1:16
140
1.0
141
16.0
290
     0
  0
SCALE
  5
4A
102
{ACAD_REACTORS
330
42
102
}
330
42
100
AcDbScale
 70
     0
300
1:20
140
1.0
141
20.0
290
     0
  0
SCALE
  5
4B
102
{ACAD_REACTORS
330
42
102
}
330
42
100
AcDbScale
 70
     0
300
1:30
140
1.0
141
30.0
290
     0
  0
SCALE
  5
4C
102
{ACAD_REACTORS
330
42
102
}
330
42
100
AcDbScale
 70
     0
300
1:40
140
1.0
141
40.0
290
     0
  0
SCALE
  5
4D
102
{ACAD_REACTORS
330
42
102
}
330
42
100
AcDbScale
 70
     0
300
1:50
140
1.0
141
50.0
290
     0
  0
SCALE
  5
4E
102
{ACAD_REACTORS
330
42
102
}
330
42
100
AcDbScale
 70
     0
300
1:100
140
1.0
141
100.0
290
     0
  0
SCALE
  5
4F
102
{ACAD_REACTORS
330
42
102
}
330
42
100
AcDbScale
 70
     0
300
2:1
140
2.0
141
1.0
290
     0
  0
SCALE
  5
50
102
{ACAD_REACTORS
330
42
102
}
330
42
100
AcDbScale
 70
     0
300
4:1
140
4.0
141
1.0
290
     0
  0
SCALE
  5
51
102
{ACAD_REACTORS
330
42
102
}
330
42
100
AcDbScale
 70
     0
300
8:1
140
8.0
141
1.0
290
     0
  0
SCALE
  5
52
102
{ACAD_REACTORS
330
42
102
}
330
42
100
AcDbScale
 70
     0
300
10:1
140
10.0
141
1.0
290
     0
  0
SCALE
  5
53
102
{ACAD_REACTORS
330
42
102
}
330
42
100
AcDbScale
 70
     0
300
100:1
140
100.0
141
1.0
290
     0
  0
ACDBSECTIONVIEWSTYLE
  5
69
102
{ACAD_REACTORS
330
68
102
}
330
68
100
AcDbModelDocViewStyle
 70
     0
  3
Imperial24
290
     1
300
Imperial24
 90
        0
100
AcDbSectionViewStyle
 70
     0
 71
     0
 90
       78
 71
     1
340
55
 62
   256
 40
0.24
340
0
340
0
 62
   256
 40
0.24
300
I, O, Q, S, X, Z
 40
0.48
 90
        3
 40
0.18
 90
        1
 71
     2
340
5D
 90
       25
 62
   256
340
5D
 90
       50
 62
   256
 40
0.24
 40
0.0
 40
0.24
 71
     3
340
55
 62
   256
 40
0.24
 90
        1
 40
0.75
 90
        1
300
%<\AcVar ViewType \f "%tc1">% %<\AcVar ViewSectionStartId>%-%<\AcVar ViewSectionEndId>%\PVARIA %<\AcVar ViewScale \f "%sn">%
 71
     4
 62
   256
 62
   257
300
ANSI31
 40
1.0
 90
        0
290
     0
290
     0
 90
        6
 40
0.0
 40
1.570796326794896
 40
0.2617993877991494
 40
1.308996938995747
 40
-0.2617993877991494
 40
1.832595714594046
  0
ACDBSECTIONVIEWSTYLE
  5
2E7
102
{ACAD_REACTORS
330
68
102
}
330
68
100
AcDbModelDocViewStyle
 70
     0
  3
Metric50
290
     1
300
Metric50
 90
        0
100
AcDbSectionViewStyle
 70
     0
 71
     0
 90
      102
 71
     1
340
55
 62
   256
 40
5.0
340
0
340
0
 62
   256
 40
5.0
300
I, O, Q, S, X, Z
 40
10.0
 90
        0
 40
2.5
 90
        0
 71
     2
340
5D
 90
       25
 62
   256
340
5D
 90
       50
 62
   256
 40
5.0
 40
2.5
 40
5.0
 71
     3
340
55
 62
   256
 40
5.0
 90
        0
 40
15.0
 90
        1
300
%<\AcVar ViewSectionStartId>%-%<\AcVar ViewSectionEndId>% (%<\AcVar ViewScale \f "%sn">%)
 71
     4
 62
   256
 62
   257
300
ANSI31
 40
1.0
 90
        0
290
     0
290
     0
 90
        6
 40
0.0
 40
1.570796326794896
 40
0.2617993877991494
 40
1.308996938995747
 40
-0.2617993877991494
 40
1.832595714594046
  0
TABLESTYLE
  5
65
102
{ACAD_XDICTIONARY
360
33A
102
}
102
{ACAD_REACTORS
330
64
102
}
330
64
100
AcDbTableStyle
280
     0
  3
Standard
 70
     0
 71
     3
 40
1.5
 41
1.5
280
     0
281
     0
  7
Standard
140
4.5
170
     2
 62
     0
 63
     7
283
     0
 90
      512
 91
        0
  1

274
    -2
284
     1
 64
     0
275
    -2
285
     1
 65
     0
276
    -2
286
     1
 66
     0
277
    -2
287
     1
 67
     0
278
    -2
288
     1
 68
     0
279
    -2
289
     1
 69
     0
  7
Standard
140
6.0
170
     5
 62
     0
 63
     7
283
     0
 90
      512
 91
        0
  1

274
    -2
284
     1
 64
     0
275
    -2
285
     1
 65
     0
276
    -2
286
     1
 66
     0
277
    -2
287
     1
 67
     0
278
    -2
288
     1
 68
     0
279
    -2
289
     1
 69
     0
  7
Standard
140
4.5
170
     5
 62
     0
 63
     7
283
     0
 90
      512
 91
        0
  1

274
    -2
284
     1
 64
     0
275
    -2
285
     1
 65
     0
276
    -2
286
     1
 66
     0
277
    -2
287
     1
 67
     0
278
    -2
288
     1
 68
     0
279
    -2
289
     1
 69
     0
  0
VISUALSTYLE
  5
2F
102
{ACAD_REACTORS
330
29
102
}
330
29
100
AcDbVisualStyle
  2
2dWireframe
 70
     4
177
     3
291
     0
 70
    58
 90
        0
176
     1
 90
        2
176
     1
 90
        0
176
     1
 90
        0
176
     1
 40
0.6
176
     1
 40
30.0
176
     1
 62
     7
420
 16777215
176
     1
 90
        1
176
     1
 90
        4
176
     1
 62
     7
176
     1
 62
   257
176
     1
 90
        1
176
     1
 90
        1
176
     1
 40
1.0
176
     1
 90
        0
176
     1
 62
   257
176
     1
 40
1.0
176
     1
 90
        1
176
     1
 90
        6
176
     1
 90
        2
176
     1
 62
     7
176
     1
 90
        5
176
     1
 90
        0
176
     1
 90
        0
176
     1
290
     0
176
     1
 90
        1
176
     1
 40
0.0
176
     1
 90
        0
176
     1
290
     1
176
     1
290
     1
176
     1
290
     0
176
     1
290
     0
176
     1
290
     0
176
     1
290
     0
176
     1
290
     0
176
     1
290
     0
176
     1
290
     0
176
     1
 90
       50
176
     1
 40
0.0
176
     1
 40
1.0
176
     1
 90
        0
176
     1
 62
    18
420
        0
176
     1
 90
       50
176
     1
 90
        3
176
     1
 62
     5
420
      255
176
     1
290
     0
176
     1
 90
       50
176
     1
 90
       50
176
     1
 90
       50
176
     1
290
     0
176
     1
 90
       50
176
     1
 62
   256
176
     0
 40
1.0
176
     0
 90
        2
176
     1
  1
strokes_ogs.tif
176
     1
290
     0
176
     1
 40
1.0
176
     1
 40
1.0
176
     1
  0
VISUALSTYLE
  5
2E
102
{ACAD_REACTORS
330
29
102
}
330
29
100
AcDbVisualStyle
  2
Basic
 70
     7
177
     3
291
     1
 70
    58
 90
        1
176
     1
 90
        0
176
     1
 90
        1
176
     1
 90
        0
176
     1
 40
0.6
176
     1
 40
30.0
176
     1
 62
     7
420
 16777215
176
     1
 90
        0
176
     1
 90
        4
176
     1
 62
     7
176
     1
 62
   257
176
     1
 90
        1
176
     1
 90
        1
176
     1
 40
1.0
176
     1
 90
        8
176
     1
 62
     7
176
     1
 40
1.0
176
     1
 90
        1
176
     1
 90
        6
176
     1
 90
        2
176
     1
 62
     7
176
     1
 90
        5
176
     1
 90
        0
176
     1
 90
        0
176
     1
290
     0
176
     1
 90
        1
176
     1
 40
0.0
176
     1
 90
        0
176
     1
290
     0
176
     1
290
     1
176
     1
290
     1
176
     1
290
     0
176
     1
290
     0
176
     1
290
     0
176
     1
290
     0
176
     1
290
     0
176
     1
290
     0
176
     1
 90
       50
176
     1
 40
0.0
176
     1
 40
1.0
176
     1
 90
        0
176
     1
 62
    18
420
        0
176
     1
 90
       50
176
     1
 90
        3
176
     1
 62
     5
420
      255
176
     1
290
     0
176
     1
 90
       50
176
     1
 90
       50
176
     1
 90
       50
176
     1
290
     0
176
     1
 90
       50
176
     1
 62
   256
176
     0
 40
1.0
176
     0
 90
        2
176
     1
  1
strokes_ogs.tif
176
     1
290
     0
176
     1
 40
1.0
176
     1
 40
1.0
176
     1
  0
VISUALSTYLE
  5
35
102
{ACAD_REACTORS
330
29
102
}
330
29
100
AcDbVisualStyle
  2
Brighten
 70
    12
177
     3
291
     1
 70
    58
 90
        2
176
     1
 90
        2
176
     1
 90
        0
176
     1
 90
        0
176
     1
 40
0.6
176
     1
 40
30.0
176
     1
 62
     7
420
 16777215
176
     1
 90
        1
176
     1
 90
        4
176
     1
 62
     7
176
     1
 62
   257
176
     1
 90
        1
176
     1
 90
        1
176
     1
 40
1.0
176
     1
 90
        8
176
     1
 62
     7
176
     1
 40
1.0
176
     1
 90
        1
176
     1
 90
        6
176
     1
 90
        2
176
     1
 62
     7
176
     1
 90
        5
176
     1
 90
        0
176
     1
 90
        0
176
     1
290
     0
176
     1
 90
        1
176
     1
 40
50.0
176
     1
 90
        0
176
     1
290
     0
176
     1
290
     1
176
     1
290
     1
176
     1
290
     0
176
     1
290
     0
176
     1
290
     0
176
     1
290
     0
176
     1
290
     0
176
     1
290
     0
176
     1
 90
       50
176
     1
 40
0.0
176
     1
 40
1.0
176
     1
 90
        0
176
     1
 62
    18
420
        0
176
     1
 90
       50
176
     1
 90
        3
176
     1
 62
     5
420
      255
176
     1
290
     0
176
     1
 90
       50
176
     1
 90
       50
176
     1
 90
       50
176
     1
290
     0
176
     1
 90
       50
176
     1
 62
   256
176
     0
 40
1.0
176
     0
 90
        2
176
     1
  1
strokes_ogs.tif
176
     1
290
     0
176
     1
 40
1.0
176
     1
 40
1.0
176
     1
  0
VISUALSTYLE
  5
39
102
{ACAD_REACTORS
330
29
102
}
330
29
100
AcDbVisualStyle
  2
ColorChange
 70
    16
177
     3
291
     1
 70
    58
 90
        2
176
     1
 90
        2
176
     1
 90
        3
176
     1
 90
        0
176
     1
 40
0.6
176
     1
 40
30.0
176
     1
 62
     8
420
  8421504
176
     1
 90
        1
176
     1
 90
        4
176
     1
 62
     7
176
     1
 62
   257
176
     1
 90
        1
176
     1
 90
        1
176
     1
 40
1.0
176
     1
 90
        8
176
     1
 62
     8
420
  8421504
176
     1
 40
1.0
176
     1
 90
        1
176
     1
 90
        6
176
     1
 90
        2
176
     1
 62
     7
176
     1
 90
        5
176
     1
 90
        0
176
     1
 90
        0
176
     1
290
     0
176
     1
 90
        1
176
     1
 40
0.0
176
     1
 90
        0
176
     1
290
     0
176
     1
290
     1
176
     1
290
     1
176
     1
290
     0
176
     1
290
     0
176
     1
290
     0
176
     1
290
     0
176
     1
290
     0
176
     1
290
     0
176
     1
 90
       50
176
     1
 40
0.0
176
     1
 40
1.0
176
     1
 90
        0
176
     1
 62
    18
420
        0
176
     1
 90
       50
176
     1
 90
        3
176
     1
 62
     5
420
      255
176
     1
290
     0
176
     1
 90
       50
176
     1
 90
       50
176
     1
 90
       50
176
     1
290
     0
176
     1
 90
       50
176
     1
 62
   256
176
     0
 40
1.0
176
     0
 90
        2
176
     1
  1
strokes_ogs.tif
176
     1
290
     0
176
     1
 40
1.0
176
     1
 40
1.0
176
     1
  0
VISUALSTYLE
  5
32
102
{ACAD_REACTORS
330
29
102
}
330
29
100
AcDbVisualStyle
  2
Conceptual
 70
     9
177
     3
291
     0
 70
    58
 90
        3
176
     1
 90
        2
176
     1
 90
        0
176
     1
 90
        0
176
     1
 40
0.6
176
     1
 40
30.0
176
     1
 62
     7
420
 16777215
176
     1
 90
        2
176
     1
 90
        2
176
     1
 62
     7
176
     1
 62
   257
176
     1
 90
        1
176
     1
 90
        1
176
     1
 40
179.0
176
     1
 90
        8
176
     1
 62
     7
176
     1
 40
1.0
176
     1
 90
        1
176
     1
 90
        6
176
     1
 90
        2
176
     1
 62
     7
176
     1
 90
        3
176
     1
 90
        0
176
     1
 90
        0
176
     1
290
     0
176
     1
 90
        1
176
     1
 40
0.0
176
     1
 90
        0
176
     1
290
     0
176
     1
290
     1
176
     1
290
     1
176
     1
290
     0
176
     1
290
     0
176
     1
290
     0
176
     1
290
     0
176
     1
290
     0
176
     1
290
     0
176
     1
 90
       50
176
     1
 40
0.0
176
     1
 40
1.0
176
     1
 90
        0
176
     1
 62
    18
420
        0
176
     1
 90
       50
176
     1
 90
        3
176
     1
 62
     5
420
      255
176
     1
290
     0
176
     1
 90
       50
176
     1
 90
       50
176
     1
 90
       50
176
     1
290
     0
176
     1
 90
       50
176
     1
 62
   256
176
     0
 40
1.0
176
     0
 90
        2
176
     1
  1
strokes_ogs.tif
176
     1
290
     0
176
     1
 40
1.0
176
     1
 40
1.0
176
     1
  0
VISUALSTYLE
  5
34
102
{ACAD_REACTORS
330
29
102
}
330
29
100
AcDbVisualStyle
  2
Dim
 70
    11
177
     3
291
     1
 70
    58
 90
        2
176
     1
 90
        2
176
     1
 90
        0
176
     1
 90
        0
176
     1
 40
0.6
176
     1
 40
30.0
176
     1
 62
     7
420
 16777215
176
     1
 90
        1
176
     1
 90
        4
176
     1
 62
     7
176
     1
 62
   257
176
     1
 90
        1
176
     1
 90
        1
176
     1
 40
1.0
176
     1
 90
        8
176
     1
 62
     7
176
     1
 40
1.0
176
     1
 90
        1
176
     1
 90
        6
176
     1
 90
        2
176
     1
 62
     7
176
     1
 90
        5
176
     1
 90
        0
176
     1
 90
        0
176
     1
290
     0
176
     1
 90
        1
176
     1
 40
-50.0
176
     1
 90
        0
176
     1
290
     0
176
     1
290
     1
176
     1
290
     1
176
     1
290
     0
176
     1
290
     0
176
     1
290
     0
176
     1
290
     0
176
     1
290
     0
176
     1
290
     0
176
     1
 90
       50
176
     1
 40
0.0
176
     1
 40
1.0
176
     1
 90
        0
176
     1
 62
    18
420
        0
176
     1
 90
       50
176
     1
 90
        3
176
     1
 62
     5
420
      255
176
     1
290
     0
176
     1
 90
       50
176
     1
 90
       50
176
     1
 90
       50
176
     1
290
     0
176
     1
 90
       50
176
     1
 62
   256
176
     0
 40
1.0
176
     0
 90
        2
176
     1
  1
strokes_ogs.tif
176
     1
290
     0
176
     1
 40
1.0
176
     1
 40
1.0
176
     1
  0
VISUALSTYLE
  5
41
102
{ACAD_REACTORS
330
29
102
}
330
29
100
AcDbVisualStyle
  2
EdgeColorOff
 70
    22
177
     3
291
     1
 70
    58
 90
        2
176
     0
 90
        2
176
     0
 90
        0
176
     0
 90
        0
176
     0
 40
0.6
176
     0
 40
30.0
176
     0
 62
     7
420
 16777215
176
     0
 90
        1
176
     0
 90
        4
176
     0
 62
     7
176
     0
 62
   257
176
     0
 90
        1
176
     0
 90
        1
176
     0
 40
1.0
176
     0
 90
        8
176
     2
 62
     7
176
     0
 40
1.0
176
     0
 90
        1
176
     0
 90
        6
176
     0
 90
        2
176
     0
 62
     7
176
     0
 90
        5
176
     0
 90
        0
176
     0
 90
        0
176
     0
290
     0
176
     0
 90
        1
176
     0
 40
0.0
176
     0
 90
        0
176
     0
290
     0
176
     0
290
     1
176
     0
290
     1
176
     0
290
     0
176
     0
290
     0
176
     0
290
     0
176
     0
290
     0
176
     0
290
     0
176
     0
290
     0
176
     0
 90
       50
176
     0
 40
0.0
176
     0
 40
1.0
176
     0
 90
        0
176
     0
 62
    18
420
        0
176
     0
 90
       50
176
     0
 90
        3
176
     0
 62
     5
420
      255
176
     0
290
     0
176
     0
 90
       50
176
     0
 90
       50
176
     0
 90
       50
176
     0
290
     0
176
     0
 90
       50
176
     0
 62
   256
176
     0
 40
1.0
176
     0
 90
        2
176
     0
  1
strokes_ogs.tif
176
     0
290
     0
176
     0
 40
1.0
176
     0
 40
1.0
176
     0
  0
VISUALSTYLE
  5
38
102
{ACAD_REACTORS
330
29
102
}
330
29
100
AcDbVisualStyle
  2
Facepattern
 70
    15
177
     3
291
     1
 70
    58
 90
        2
176
     1
 90
        2
176
     1
 90
        0
176
     1
 90
        0
176
     1
 40
0.6
176
     1
 40
30.0
176
     1
 62
     7
420
 16777215
176
     1
 90
        1
176
     1
 90
        4
176
     1
 62
     7
176
     1
 62
   257
176
     1
 90
        1
176
     1
 90
        1
176
     1
 40
1.0
176
     1
 90
        8
176
     1
 62
     7
176
     1
 40
1.0
176
     1
 90
        1
176
     1
 90
        6
176
     1
 90
        2
176
     1
 62
     7
176
     1
 90
        5
176
     1
 90
        0
176
     1
 90
        0
176
     1
290
     0
176
     1
 90
        1
176
     1
 40
0.0
176
     1
 90
        0
176
     1
290
     0
176
     1
290
     1
176
     1
290
     1
176
     1
290
     0
176
     1
290
     0
176
     1
290
     0
176
     1
290
     0
176
     1
290
     0
176
     1
290
     0
176
     1
 90
       50
176
     1
 40
0.0
176
     1
 40
1.0
176
     1
 90
        0
176
     1
 62
    18
420
        0
176
     1
 90
       50
176
     1
 90
        3
176
     1
 62
     5
420
      255
176
     1
290
     0
176
     1
 90
       50
176
     1
 90
       50
176
     1
 90
       50
176
     1
290
     0
176
     1
 90
       50
176
     1
 62
   256
176
     0
 40
1.0
176
     0
 90
        2
176
     1
  1
strokes_ogs.tif
176
     1
290
     0
176
     1
 40
1.0
176
     1
 40
1.0
176
     1
  0
VISUALSTYLE
  5
2A
102
{ACAD_REACTORS
330
29
102
}
330
29
100
AcDbVisualStyle
  2
Flat
 70
     0
177
     3
291
     1
 70
    58
 90
        2
176
     1
 90
        1
176
     1
 90
        1
176
     1
 90
        2
176
     1
 40
0.6
176
     1
 40
30.0
176
     1
 62
     7
420
 16777215
176
     1
 90
        0
176
     1
 90
        0
176
     1
 62
     7
176
     1
 62
   257
176
     1
 90
        1
176
     1
 90
        1
176
     1
 40
1.0
176
     1
 90
        8
176
     1
 62
     7
176
     1
 40
1.0
176
     1
 90
        1
176
     1
 90
        6
176
     1
 90
        2
176
     1
 62
     7
176
     1
 90
        5
176
     1
 90
        0
176
     1
 90
        0
176
     1
290
     0
176
     1
 90
       13
176
     1
 40
0.0
176
     1
 90
        0
176
     1
290
     0
176
     1
290
     1
176
     1
290
     1
176
     1
290
     0
176
     1
290
     0
176
     1
290
     0
176
     1
290
     0
176
     1
290
     0
176
     1
290
     0
176
     1
 90
       50
176
     1
 40
0.0
176
     1
 40
1.0
176
     1
 90
        0
176
     1
 62
    18
420
        0
176
     1
 90
       50
176
     1
 90
        3
176
     1
 62
     5
420
      255
176
     1
290
     0
176
     1
 90
       50
176
     1
 90
       50
176
     1
 90
       50
176
     1
290
     0
176
     1
 90
       50
176
     1
 62
   256
176
     0
 40
1.0
176
     0
 90
        2
176
     1
  1
strokes_ogs.tif
176
     1
290
     0
176
     1
 40
1.0
176
     1
 40
1.0
176
     1
  0
VISUALSTYLE
  5
2B
102
{ACAD_REACTORS
330
29
102
}
330
29
100
AcDbVisualStyle
  2
FlatWithEdges
 70
     1
177
     3
291
     1
 70
    58
 90
        2
176
     1
 90
        1
176
     1
 90
        1
176
     1
 90
        2
176
     1
 40
0.6
176
     1
 40
30.0
176
     1
 62
     7
420
 16777215
176
     1
 90
        1
176
     1
 90
        0
176
     1
 62
     7
176
     1
 62
   257
176
     1
 90
        1
176
     1
 90
        1
176
     1
 40
1.0
176
     1
 90
        0
176
     1
 62
   257
176
     1
 40
1.0
176
     1
 90
        1
176
     1
 90
        6
176
     1
 90
        2
176
     1
 62
     7
176
     1
 90
        5
176
     1
 90
        0
176
     1
 90
        0
176
     1
290
     0
176
     1
 90
       13
176
     1
 40
0.0
176
     1
 90
        0
176
     1
290
     0
176
     1
290
     1
176
     1
290
     1
176
     1
290
     0
176
     1
290
     0
176
     1
290
     0
176
     1
290
     0
176
     1
290
     0
176
     1
290
     0
176
     1
 90
       50
176
     1
 40
0.0
176
     1
 40
1.0
176
     1
 90
        0
176
     1
 62
    18
420
        0
176
     1
 90
       50
176
     1
 90
        3
176
     1
 62
     5
420
      255
176
     1
290
     0
176
     1
 90
       50
176
     1
 90
       50
176
     1
 90
       50
176
     1
290
     0
176
     1
 90
       50
176
     1
 62
   256
176
     0
 40
1.0
176
     0
 90
        2
176
     1
  1
strokes_ogs.tif
176
     1
290
     0
176
     1
 40
1.0
176
     1
 40
1.0
176
     1
  0
VISUALSTYLE
  5
2C
102
{ACAD_REACTORS
330
29
102
}
330
29
100
AcDbVisualStyle
  2
Gouraud
 70
     2
177
     3
291
     1
 70
    58
 90
        2
176
     1
 90
        2
176
     1
 90
        1
176
     1
 90
        2
176
     1
 40
0.6
176
     1
 40
30.0
176
     1
 62
     7
420
 16777215
176
     1
 90
        0
176
     1
 90
        0
176
     1
 62
     7
176
     1
 62
   257
176
     1
 90
        1
176
     1
 90
        1
176
     1
 40
1.0
176
     1
 90
        0
176
     1
 62
     7
176
     1
 40
1.0
176
     1
 90
        1
176
     1
 90
        6
176
     1
 90
        2
176
     1
 62
     7
176
     1
 90
        5
176
     1
 90
        0
176
     1
 90
        0
176
     1
290
     0
176
     1
 90
       13
176
     1
 40
0.0
176
     1
 90
        0
176
     1
290
     0
176
     1
290
     1
176
     1
290
     1
176
     1
290
     0
176
     1
290
     0
176
     1
290
     0
176
     1
290
     0
176
     1
290
     0
176
     1
290
     0
176
     1
 90
       50
176
     1
 40
0.0
176
     1
 40
1.0
176
     1
 90
        0
176
     1
 62
    18
420
        0
176
     1
 90
       50
176
     1
 90
        3
176
     1
 62
     5
420
      255
176
     1
290
     0
176
     1
 90
       50
176
     1
 90
       50
176
     1
 90
       50
176
     1
290
     0
176
     1
 90
       50
176
     1
 62
   256
176
     0
 40
1.0
176
     0
 90
        2
176
     1
  1
strokes_ogs.tif
176
     1
290
     0
176
     1
 40
1.0
176
     1
 40
1.0
176
     1
  0
VISUALSTYLE
  5
2D
102
{ACAD_REACTORS
330
29
102
}
330
29
100
AcDbVisualStyle
  2
GouraudWithEdges
 70
     3
177
     3
291
     1
 70
    58
 90
        2
176
     1
 90
        2
176
     1
 90
        1
176
     1
 90
        2
176
     1
 40
0.6
176
     1
 40
30.0
176
     1
 62
     7
420
 16777215
176
     1
 90
        1
176
     1
 90
        0
176
     1
 62
     7
176
     1
 62
   257
176
     1
 90
        1
176
     1
 90
        1
176
     1
 40
1.0
176
     1
 90
        0
176
     1
 62
   257
176
     1
 40
1.0
176
     1
 90
        1
176
     1
 90
        6
176
     1
 90
        2
176
     1
 62
     7
176
     1
 90
        5
176
     1
 90
        0
176
     1
 90
        0
176
     1
290
     0
176
     1
 90
       13
176
     1
 40
0.0
176
     1
 90
        0
176
     1
290
     0
176
     1
290
     1
176
     1
290
     1
176
     1
290
     0
176
     1
290
     0
176
     1
290
     0
176
     1
290
     0
176
     1
290
     0
176
     1
290
     0
176
     1
 90
       50
176
     1
 40
0.0
176
     1
 40
1.0
176
     1
 90
        0
176
     1
 62
    18
420
        0
176
     1
 90
       50
176
     1
 90
        3
176
     1
 62
     5
420
      255
176
     1
290
     0
176
     1
 90
       50
176
     1
 90
       50
176
     1
 90
       50
176
     1
290
     0
176
     1
 90
       50
176
     1
 62
   256
176
     0
 40
1.0
176
     0
 90
        2
176
     1
  1
strokes_ogs.tif
176
     1
290
     0
176
     1
 40
1.0
176
     1
 40
1.0
176
     1
  0
VISUALSTYLE
  5
31
102
{ACAD_REACTORS
330
29
102
}
330
29
100
AcDbVisualStyle
  2
Hidden
 70
     6
177
     3
291
     0
 70
    58
 90
        1
176
     1
 90
        2
176
     1
 90
        2
176
     1
 90
        0
176
     1
 40
0.6
176
     1
 40
30.0
176
     1
 62
     7
420
 16777215
176
     1
 90
        2
176
     1
 90
        2
176
     1
 62
     7
176
     1
 62
   257
176
     1
 90
        2
176
     1
 90
        1
176
     1
 40
40.0
176
     1
 90
        0
176
     1
 62
   257
176
     1
 40
1.0
176
     1
 90
        1
176
     1
 90
        6
176
     1
 90
        2
176
     1
 62
     7
176
     1
 90
        3
176
     1
 90
        0
176
     1
 90
        0
176
     1
290
     0
176
     1
 90
        1
176
     1
 40
0.0
176
     1
 90
        0
176
     1
290
     0
176
     1
290
     1
176
     1
290
     1
176
     1
290
     0
176
     1
290
     0
176
     1
290
     0
176
     1
290
     0
176
     1
290
     0
176
     1
290
     0
176
     1
 90
       50
176
     1
 40
0.0
176
     1
 40
1.0
176
     1
 90
        0
176
     1
 62
    18
420
        0
176
     1
 90
       50
176
     1
 90
        3
176
     1
 62
     5
420
      255
176
     1
290
     0
176
     1
 90
       50
176
     1
 90
       50
176
     1
 90
       50
176
     1
290
     0
176
     1
 90
       50
176
     1
 62
   256
176
     0
 40
1.0
176
     0
 90
        2
176
     1
  1
strokes_ogs.tif
176
     1
290
     0
176
     1
 40
1.0
176
     1
 40
1.0
176
     1
  0
VISUALSTYLE
  5
3F
102
{ACAD_REACTORS
330
29
102
}
330
29
100
AcDbVisualStyle
  2
JitterOff
 70
    20
177
     3
291
     1
 70
    58
 90
        2
176
     0
 90
        2
176
     0
 90
        0
176
     0
 90
        0
176
     0
 40
0.6
176
     0
 40
30.0
176
     0
 62
     7
420
 16777215
176
     0
 90
        1
176
     0
 90
        4
176
     0
 62
     7
176
     0
 62
   257
176
     0
 90
        1
176
     0
 90
        1
176
     0
 40
1.0
176
     0
 90
       10
176
     2
 62
     7
176
     0
 40
1.0
176
     0
 90
        1
176
     0
 90
        6
176
     0
 90
        2
176
     0
 62
     7
176
     0
 90
        5
176
     0
 90
        0
176
     0
 90
        0
176
     0
290
     0
176
     0
 90
        1
176
     0
 40
0.0
176
     0
 90
        0
176
     0
290
     0
176
     0
290
     1
176
     0
290
     1
176
     0
290
     0
176
     0
290
     0
176
     0
290
     0
176
     0
290
     0
176
     0
290
     0
176
     0
290
     0
176
     0
 90
       50
176
     0
 40
0.0
176
     0
 40
1.0
176
     0
 90
        0
176
     0
 62
    18
420
        0
176
     0
 90
       50
176
     0
 90
        3
176
     0
 62
     5
420
      255
176
     0
290
     0
176
     0
 90
       50
176
     0
 90
       50
176
     0
 90
       50
176
     0
290
     0
176
     0
 90
       50
176
     0
 62
   256
176
     0
 40
1.0
176
     0
 90
        2
176
     0
  1
strokes_ogs.tif
176
     0
290
     0
176
     0
 40
1.0
176
     0
 40
1.0
176
     0
  0
VISUALSTYLE
  5
37
102
{ACAD_REACTORS
330
29
102
}
330
29
100
AcDbVisualStyle
  2
Linepattern
 70
    14
177
     3
291
     1
 70
    58
 90
        2
176
     1
 90
        2
176
     1
 90
        0
176
     1
 90
        0
176
     1
 40
0.6
176
     1
 40
30.0
176
     1
 62
     7
420
 16777215
176
     1
 90
        1
176
     1
 90
        4
176
     1
 62
     7
176
     1
 62
   257
176
     1
 90
        7
176
     1
 90
        7
176
     1
 40
1.0
176
     1
 90
        8
176
     1
 62
     7
176
     1
 40
1.0
176
     1
 90
        1
176
     1
 90
        6
176
     1
 90
        2
176
     1
 62
     7
176
     1
 90
        5
176
     1
 90
        0
176
     1
 90
        0
176
     1
290
     0
176
     1
 90
        1
176
     1
 40
0.0
176
     1
 90
        0
176
     1
290
     0
176
     1
290
     1
176
     1
290
     1
176
     1
290
     0
176
     1
290
     0
176
     1
290
     0
176
     1
290
     0
176
     1
290
     0
176
     1
290
     0
176
     1
 90
       50
176
     1
 40
0.0
176
     1
 40
1.0
176
     1
 90
        0
176
     1
 62
    18
420
        0
176
     1
 90
       50
176
     1
 90
        3
176
     1
 62
     5
420
      255
176
     1
290
     0
176
     1
 90
       50
176
     1
 90
       50
176
     1
 90
       50
176
     1
290
     0
176
     1
 90
       50
176
     1
 62
   256
176
     0
 40
1.0
176
     0
 90
        2
176
     1
  1
strokes_ogs.tif
176
     1
290
     0
176
     1
 40
1.0
176
     1
 40
1.0
176
     1
  0
VISUALSTYLE
  5
40
102
{ACAD_REACTORS
330
29
102
}
330
29
100
AcDbVisualStyle
  2
OverhangOff
 70
    21
177
     3
291
     1
 70
    58
 90
        2
176
     0
 90
        2
176
     0
 90
        0
176
     0
 90
        0
176
     0
 40
0.6
176
     0
 40
30.0
176
     0
 62
     7
420
 16777215
176
     0
 90
        1
176
     0
 90
        4
176
     0
 62
     7
176
     0
 62
   257
176
     0
 90
        1
176
     0
 90
        1
176
     0
 40
1.0
176
     0
 90
        9
176
     2
 62
     7
176
     0
 40
1.0
176
     0
 90
        1
176
     0
 90
        6
176
     0
 90
        2
176
     0
 62
     7
176
     0
 90
        5
176
     0
 90
        0
176
     0
 90
        0
176
     0
290
     0
176
     0
 90
        1
176
     0
 40
0.0
176
     0
 90
        0
176
     0
290
     0
176
     0
290
     1
176
     0
290
     1
176
     0
290
     0
176
     0
290
     0
176
     0
290
     0
176
     0
290
     0
176
     0
290
     0
176
     0
290
     0
176
     0
 90
       50
176
     0
 40
0.0
176
     0
 40
1.0
176
     0
 90
        0
176
     0
 62
    18
420
        0
176
     0
 90
       50
176
     0
 90
        3
176
     0
 62
     5
420
      255
176
     0
290
     0
176
     0
 90
       50
176
     0
 90
       50
176
     0
 90
       50
176
     0
290
     0
176
     0
 90
       50
176
     0
 62
   256
176
     0
 40
1.0
176
     0
 90
        2
176
     0
  1
strokes_ogs.tif
176
     0
290
     0
176
     0
 40
1.0
176
     0
 40
1.0
176
     0
  0
VISUALSTYLE
  5
33
102
{ACAD_REACTORS
330
29
102
}
330
29
100
AcDbVisualStyle
  2
Realistic
 70
     8
177
     3
291
     0
 70
    58
 90
        2
176
     1
 90
        3
176
     1
 90
        0
176
     1
 90
        2
176
     1
 40
0.6
176
     1
 40
30.0
176
     1
 62
     7
420
 16777215
176
     1
 90
        0
176
     1
 90
        0
176
     1
 62
     7
176
     1
 62
   257
176
     1
 90
        1
176
     1
 90
        1
176
     1
 40
1.0
176
     1
 90
        8
176
     1
 62
   257
176
     1
 40
1.0
176
     1
 90
        1
176
     1
 90
        6
176
     1
 90
        2
176
     1
 62
     7
176
     1
 90
        3
176
     1
 90
        0
176
     1
 90
        0
176
     1
290
     0
176
     1
 90
       13
176
     1
 40
0.0
176
     1
 90
        0
176
     1
290
     0
176
     1
290
     1
176
     1
290
     1
176
     1
290
     0
176
     1
290
     0
176
     1
290
     0
176
     1
290
     0
176
     1
290
     0
176
     1
290
     0
176
     1
 90
       50
176
     1
 40
0.0
176
     1
 40
1.0
176
     1
 90
        0
176
     1
 62
    18
420
        0
176
     1
 90
       50
176
     1
 90
        3
176
     1
 62
     5
420
      255
176
     1
290
     0
176
     1
 90
       50
176
     1
 90
       50
176
     1
 90
       50
176
     1
290
     0
176
     1
 90
       50
176
     1
 62
   256
176
     0
 40
1.0
176
     0
 90
        2
176
     1
  1
strokes_ogs.tif
176
     1
290
     0
176
     1
 40
1.0
176
     1
 40
1.0
176
     1
  0
VISUALSTYLE
  5
3E
102
{ACAD_REACTORS
330
29
102
}
330
29
100
AcDbVisualStyle
  2
Shaded
 70
    27
177
     3
291
     0
 70
    58
 90
        2
176
     1
 90
        2
176
     1
 90
        1
176
     1
 90
        2
176
     1
 40
0.6
176
     1
 40
30.0
176
     1
 62
     7
420
 16777215
176
     1
 90
        0
176
     1
 90
        4
176
     1
 62
     7
176
     1
 62
   257
176
     1
 90
        1
176
     1
 90
        1
176
     1
 40
1.0
176
     1
 90
        8
176
     1
 62
   257
176
     1
 40
1.0
176
     1
 90
        1
176
     1
 90
        6
176
     1
 90
        2
176
     1
 62
     8
420
  7895160
176
     1
 90
        3
176
     1
 90
        0
176
     1
 90
        0
176
     1
290
     0
176
     1
 90
        5
176
     1
 40
0.0
176
     1
 90
        0
176
     1
290
     0
176
     1
290
     1
176
     1
290
     1
176
     1
290
     0
176
     1
290
     0
176
     1
290
     0
176
     1
290
     0
176
     1
290
     0
176
     1
290
     0
176
     1
 90
       50
176
     1
 40
0.0
176
     1
 40
1.0
176
     1
 90
        0
176
     1
 62
    18
420
        0
176
     1
 90
       50
176
     1
 90
        3
176
     1
 62
     5
420
      255
176
     1
290
     0
176
     1
 90
       50
176
     1
 90
       50
176
     1
 90
       50
176
     1
290
     0
176
     1
 90
       50
176
     1
 62
   256
176
     0
 40
1.0
176
     0
 90
        2
176
     1
  1
strokes_ogs.tif
176
     1
290
     0
176
     1
 40
1.0
176
     1
 40
1.0
176
     1
  0
VISUALSTYLE
  5
3D
102
{ACAD_REACTORS
330
29
102
}
330
29
100
AcDbVisualStyle
  2
Shaded with edges
 70
    26
177
     3
291
     0
 70
    58
 90
        2
176
     1
 90
        2
176
     1
 90
        1
176
     1
 90
        2
176
     1
 40
0.6
176
     1
 40
30.0
176
     1
 62
     7
420
 16777215
176
     1
 90
        1
176
     1
 90
        2
176
     1
 62
     7
176
     1
 62
   257
176
     1
 90
        2
176
     1
 90
        1
176
     1
 40
1.0
176
     1
 90
        8
176
     1
 62
   257
176
     1
 40
1.0
176
     1
 90
        1
176
     1
 90
        6
176
     1
 90
        2
176
     1
 62
     7
176
     1
 90
        3
176
     1
 90
        0
176
     1
 90
        0
176
     1
290
     0
176
     1
 90
        5
176
     1
 40
0.0
176
     1
 90
        0
176
     1
290
     0
176
     1
290
     1
176
     1
290
     1
176
     1
290
     0
176
     1
290
     0
176
     1
290
     0
176
     1
290
     0
176
     1
290
     0
176
     1
290
     0
176
     1
 90
       50
176
     1
 40
0.0
176
     1
 40
1.0
176
     1
 90
        0
176
     1
 62
    18
420
        0
176
     1
 90
       50
176
     1
 90
        3
176
     1
 62
     5
420
      255
176
     1
290
     0
176
     1
 90
       50
176
     1
 90
       50
176
     1
 90
       50
176
     1
290
     0
176
     1
 90
       50
176
     1
 62
   256
176
     0
 40
1.0
176
     0
 90
        2
176
     1
  1
strokes_ogs.tif
176
     1
290
     0
176
     1
 40
1.0
176
     1
 40
1.0
176
     1
  0
VISUALSTYLE
  5
3A
102
{ACAD_REACTORS
330
29
102
}
330
29
100
AcDbVisualStyle
  2
Shades of Gray
 70
    23
177
     3
291
     0
 70
    58
 90
        2
176
     1
 90
        2
176
     1
 90
        3
176
     1
 90
        0
176
     1
 40
0.6
176
     1
 40
30.0
176
     1
 62
     7
420
 16777215
176
     1
 90
        2
176
     1
 90
        2
176
     1
 62
     7
176
     1
 62
     7
176
     1
 90
        1
176
     1
 90
        1
176
     1
 40
40.0
176
     1
 90
        8
176
     1
 62
     7
176
     1
 40
1.0
176
     1
 90
        1
176
     1
 90
        6
176
     1
 90
        2
176
     1
 62
     7
176
     1
 90
        3
176
     1
 90
        0
176
     1
 90
        0
176
     1
290
     0
176
     1
 90
        1
176
     1
 40
0.0
176
     1
 90
        0
176
     1
290
     0
176
     1
290
     1
176
     1
290
     1
176
     1
290
     0
176
     1
290
     0
176
     1
290
     0
176
     1
290
     0
176
     1
290
     0
176
     1
290
     0
176
     1
 90
       50
176
     1
 40
0.0
176
     1
 40
1.0
176
     1
 90
        0
176
     1
 62
    18
420
        0
176
     1
 90
       50
176
     1
 90
        3
176
     1
 62
     5
420
      255
176
     1
290
     0
176
     1
 90
       50
176
     1
 90
       50
176
     1
 90
       50
176
     1
290
     0
176
     1
 90
       50
176
     1
 62
   256
176
     0
 40
1.0
176
     0
 90
        2
176
     1
  1
strokes_ogs.tif
176
     1
290
     0
176
     1
 40
1.0
176
     1
 40
1.0
176
     1
  0
VISUALSTYLE
  5
3B
102
{ACAD_REACTORS
330
29
102
}
330
29
100
AcDbVisualStyle
  2
Sketchy
 70
    24
177
     3
291
     0
 70
    58
 90
        1
176
     1
 90
        2
176
     1
 90
        2
176
     1
 90
        0
176
     1
 40
0.6
176
     1
 40
30.0
176
     1
 62
     7
420
 16777215
176
     1
 90
        2
176
     1
 90
        2
176
     1
 62
     7
176
     1
 62
     7
176
     1
 90
        1
176
     1
 90
        1
176
     1
 40
40.0
176
     1
 90
       11
176
     1
 62
     7
176
     1
 40
1.0
176
     1
 90
        1
176
     1
 90
        6
176
     1
 90
        2
176
     1
 62
     7
176
     1
 90
        6
176
     1
 90
        0
176
     1
 90
        0
176
     1
290
     0
176
     1
 90
        1
176
     1
 40
0.0
176
     1
 90
        0
176
     1
290
     0
176
     1
290
     1
176
     1
290
     1
176
     1
290
     0
176
     1
290
     0
176
     1
290
     0
176
     1
290
     0
176
     1
290
     0
176
     1
290
     0
176
     1
 90
       50
176
     1
 40
0.0
176
     1
 40
1.0
176
     1
 90
        0
176
     1
 62
    18
420
        0
176
     1
 90
       50
176
     1
 90
        3
176
     1
 62
     5
420
      255
176
     1
290
     0
176
     1
 90
       50
176
     1
 90
       50
176
     1
 90
       50
176
     1
290
     0
176
     1
 90
       50
176
     1
 62
   256
176
     0
 40
1.0
176
     0
 90
        2
176
     1
  1
strokes_ogs.tif
176
     1
290
     0
176
     1
 40
1.0
176
     1
 40
1.0
176
     1
  0
VISUALSTYLE
  5
36
102
{ACAD_REACTORS
330
29
102
}
330
29
100
AcDbVisualStyle
  2
Thicken
 70
    13
177
     3
291
     1
 70
    58
 90
        2
176
     1
 90
        2
176
     1
 90
        0
176
     1
 90
        0
176
     1
 40
0.6
176
     1
 40
30.0
176
     1
 62
     7
420
 16777215
176
     1
 90
        1
176
     1
 90
        4
176
     1
 62
     7
176
     1
 62
   257
176
     1
 90
        1
176
     1
 90
        1
176
     1
 40
1.0
176
     1
 90
       12
176
     1
 62
     7
176
     1
 40
1.0
176
     1
 90
        1
176
     1
 90
        6
176
     1
 90
        2
176
     1
 62
     7
176
     1
 90
        5
176
     1
 90
        0
176
     1
 90
        0
176
     1
290
     0
176
     1
 90
        1
176
     1
 40
0.0
176
     1
 90
        0
176
     1
290
     0
176
     1
290
     1
176
     1
290
     1
176
     1
290
     0
176
     1
290
     0
176
     1
290
     0
176
     1
290
     0
176
     1
290
     0
176
     1
290
     0
176
     1
 90
       50
176
     1
 40
0.0
176
     1
 40
1.0
176
     1
 90
        0
176
     1
 62
    18
420
        0
176
     1
 90
       50
176
     1
 90
        3
176
     1
 62
     5
420
      255
176
     1
290
     0
176
     1
 90
       50
176
     1
 90
       50
176
     1
 90
       50
176
     1
290
     0
176
     1
 90
       50
176
     1
 62
   256
176
     0
 40
1.0
176
     0
 90
        2
176
     1
  1
strokes_ogs.tif
176
     1
290
     0
176
     1
 40
1.0
176
     1
 40
1.0
176
     1
  0
VISUALSTYLE
  5
30
102
{ACAD_REACTORS
330
29
102
}
330
29
100
AcDbVisualStyle
  2
Wireframe
 70
     5
177
     3
291
     0
 70
    58
 90
        0
176
     1
 90
        2
176
     1
 90
        0
176
     1
 90
        0
176
     1
 40
0.6
176
     1
 40
30.0
176
     1
 62
     7
420
 16777215
176
     1
 90
        1
176
     1
 90
        4
176
     1
 62
     7
176
     1
 62
   257
176
     1
 90
        1
176
     1
 90
        1
176
     1
 40
1.0
176
     1
 90
        0
176
     1
 62
   257
176
     1
 40
1.0
176
     1
 90
        1
176
     1
 90
        6
176
     1
 90
        2
176
     1
 62
     7
176
     1
 90
        3
176
     1
 90
        0
176
     1
 90
        0
176
     1
290
     0
176
     1
 90
        1
176
     1
 40
0.0
176
     1
 90
        0
176
     1
290
     0
176
     1
290
     1
176
     1
290
     1
176
     1
290
     0
176
     1
290
     0
176
     1
290
     0
176
     1
290
     0
176
     1
290
     0
176
     1
290
     0
176
     1
 90
       50
176
     1
 40
0.0
176
     1
 40
1.0
176
     1
 90
        0
176
     1
 62
    18
420
        0
176
     1
 90
       50
176
     1
 90
        3
176
     1
 62
     5
420
      255
176
     1
290
     0
176
     1
 90
       50
176
     1
 90
       50
176
     1
 90
       50
176
     1
290
     0
176
     1
 90
       50
176
     1
 62
   256
176
     0
 40
1.0
176
     0
 90
        2
176
     1
  1
strokes_ogs.tif
176
     1
290
     0
176
     1
 40
1.0
176
     1
 40
1.0
176
     1
  0
VISUALSTYLE
  5
3C
102
{ACAD_REACTORS
330
29
102
}
330
29
100
AcDbVisualStyle
  2
X-Ray
 70
    25
177
     3
291
     0
 70
    58
 90
        2
176
     1
 90
        2
176
     1
 90
        1
176
     1
 90
        1
176
     1
 40
0.5
176
     1
 40
30.0
176
     1
 62
     7
420
 16777215
176
     1
 90
        1
176
     1
 90
        0
176
     1
 62
     7
176
     1
 62
   257
176
     1
 90
        1
176
     1
 90
        1
176
     1
 40
1.0
176
     1
 90
        8
176
     1
 62
     7
176
     1
 40
1.0
176
     1
 90
        1
176
     1
 90
        6
176
     1
 90
        2
176
     1
 62
     7
176
     1
 90
        3
176
     1
 90
        0
176
     1
 90
        0
176
     1
290
     0
176
     1
 90
       13
176
     1
 40
0.0
176
     1
 90
        0
176
     1
290
     0
176
     1
290
     1
176
     1
290
     1
176
     1
290
     0
176
     1
290
     0
176
     1
290
     0
176
     1
290
     0
176
     1
290
     0
176
     1
290
     0
176
     1
 90
       50
176
     1
 40
0.0
176
     1
 40
1.0
176
     1
 90
        0
176
     1
 62
    18
420
        0
176
     1
 90
       50
176
     1
 90
        3
176
     1
 62
     5
420
      255
176
     1
290
     0
176
     1
 90
       50
176
     1
 90
       50
176
     1
 90
       50
176
     1
290
     0
176
     1
 90
       50
176
     1
 62
   256
176
     0
 40
1.0
176
     0
 90
        2
176
     1
  1
strokes_ogs.tif
176
     1
290
     0
176
     1
 40
1.0
176
     1
 40
1.0
176
     1
  0
DICTIONARYVAR
  5
2E4
102
{ACAD_REACTORS
330
2DF
102
}
330
2DF
100
DictionaryVariables
280
     0
  1
0
  0
DICTIONARYVAR
  5
2E5
102
{ACAD_REACTORS
330
2DF
102
}
330
2DF
100
DictionaryVariables
280
     0
  1
1:1
  0
DICTIONARYVAR
  5
2E1
102
{ACAD_REACTORS
330
2DF
102
}
330
2DF
100
DictionaryVariables
280
     0
  1
STANDARD
  0
DICTIONARYVAR
  5
2E0
102
{ACAD_REACTORS
330
2DF
102
}
330
2DF
100
DictionaryVariables
280
     0
  1
STANDARD
  0
DICTIONARYVAR
  5
2E2
102
{ACAD_REACTORS
330
2DF
102
}
330
2DF
100
DictionaryVariables
280
     0
  1
Imperial24
  0
DICTIONARYVAR
  5
2E3
102
{ACAD_REACTORS
330
2DF
102
}
330
2DF
100
DictionaryVariables
280
     0
  1
Imperial24
  0
DICTIONARY
  5
10C
102
{ACAD_REACTORS
330
10A
102
}
330
10A
100
AcDbDictionary
281
     1
  0
DICTIONARY
  5
11E
102
{ACAD_REACTORS
330
11D
102
}
330
11D
100
AcDbDictionary
281
     1
  0
DICTIONARY
  5
12F
102
{ACAD_REACTORS
330
12E
102
}
330
12E
100
AcDbDictionary
281
     1
  0
DICTIONARY
  5
140
102
{ACAD_REACTORS
330
13F
102
}
330
13F
100
AcDbDictionary
281
     1
  0
DICTIONARY
  5
151
102
{ACAD_REACTORS
330
150
102
}
330
150
100
AcDbDictionary
281
     1
  0
DICTIONARY
  5
163
102
{ACAD_REACTORS
330
162
102
}
330
162
100
AcDbDictionary
281
     1
  0
DICTIONARY
  5
176
102
{ACAD_REACTORS
330
175
102
}
330
175
100
AcDbDictionary
281
     1
  0
DICTIONARY
  5
1A
330
19
100
AcDbDictionary
280
     1
281
     1
  3
BUMPTILE
360
1C
  3
DIFFUSETILE
360
1B
  3
OPACITYTILE
360
1F
  3
REFLECTIONTILE
360
1E
  3
REFRACTIONTILE
360
20
  3
SPECULARTILE
360
1D
  0
DICTIONARY
  5
12
330
11
100
AcDbDictionary
280
     1
281
     1
  3
BUMPTILE
360
14
  3
DIFFUSETILE
360
13
  3
OPACITYTILE
360
17
  3
REFLECTIONTILE
360
16
  3
REFRACTIONTILE
360
18
  3
SPECULARTILE
360
15
  0
DICTIONARY
  5
22
330
21
100
AcDbDictionary
280
     1
281
     1
  3
BUMPTILE
360
24
  3
DIFFUSETILE
360
23
  3
OPACITYTILE
360
27
  3
REFLECTIONTILE
360
26
  3
REFRACTIONTILE
360
28
  3
SPECULARTILE
360
25
  0
DICTIONARY
  5
33A
330
65
100
AcDbDictionary
280
     1
281
     1
  3
ACAD_ROUNDTRIP_2008_TABLESTYLE_CELLSTYLEMAP
360
33B
  0
XRECORD
  5
1C
102
{ACAD_REACTORS
330
1A
102
}
330
1A
100
AcDbXrecord
280
     1
270
     1
271
     1
  0
XRECORD
  5
1B
102
{ACAD_REACTORS
330
1A
102
}
330
1A
100
AcDbXrecord
280
     1
270
     1
271
     1
  0
XRECORD
  5
1F
102
{ACAD_REACTORS
330
1A
102
}
330
1A
100
AcDbXrecord
280
     1
270
     1
271
     1
  0
XRECORD
  5
1E
102
{ACAD_REACTORS
330
1A
102
}
330
1A
100
AcDbXrecord
280
     1
270
     1
271
     1
  0
XRECORD
  5
20
102
{ACAD_REACTORS
330
1A
102
}
330
1A
100
AcDbXrecord
280
     1
270
     1
271
     1
  0
XRECORD
  5
1D
102
{ACAD_REACTORS
330
1A
102
}
330
1A
100
AcDbXrecord
280
     1
270
     1
271
     1
  0
XRECORD
  5
14
102
{ACAD_REACTORS
330
12
102
}
330
12
100
AcDbXrecord
280
     1
270
     1
271
     1
  0
XRECORD
  5
13
102
{ACAD_REACTORS
330
12
102
}
330
12
100
AcDbXrecord
280
     1
270
     1
271
     1
  0
XRECORD
  5
17
102
{ACAD_REACTORS
330
12
102
}
330
12
100
AcDbXrecord
280
     1
270
     1
271
     1
  0
XRECORD
  5
16
102
{ACAD_REACTORS
330
12
102
}
330
12
100
AcDbXrecord
280
     1
270
     1
271
     1
  0
XRECORD
  5
18
102
{ACAD_REACTORS
330
12
102
}
330
12
100
AcDbXrecord
280
     1
270
     1
271
     1
  0
XRECORD
  5
15
102
{ACAD_REACTORS
330
12
102
}
330
12
100
AcDbXrecord
280
     1
270
     1
271
     1
  0
XRECORD
  5
24
102
{ACAD_REACTORS
330
22
102
}
330
22
100
AcDbXrecord
280
     1
270
     1
271
     1
  0
XRECORD
  5
23
102
{ACAD_REACTORS
330
22
102
}
330
22
100
AcDbXrecord
280
     1
270
     1
271
     1
  0
XRECORD
  5
27
102
{ACAD_REACTORS
330
22
102
}
330
22
100
AcDbXrecord
280
     1
270
     1
271
     1
  0
XRECORD
  5
26
102
{ACAD_REACTORS
330
22
102
}
330
22
100
AcDbXrecord
280
     1
270
     1
271
     1
  0
XRECORD
  5
28
102
{ACAD_REACTORS
330
22
102
}
330
22
100
AcDbXrecord
280
     1
270
     1
271
     1
  0
XRECORD
  5
25
102
{ACAD_REACTORS
330
22
102
}
330
22
100
AcDbXrecord
280
     1
270
     1
271
     1
  0
CELLSTYLEMAP
  5
33B
102
{ACAD_REACTORS
330
33A
102
}
330
33A
100
AcDbCellStyleMap
 90
        3
300
CELLSTYLE
  1
TABLEFORMAT_BEGIN
 90
        5
170
     1
 91
        0
 92
    32768
 62
   257
 93
        1
300
CONTENTFORMAT
  1
CONTENTFORMAT_BEGIN
 90
        0
 91
        0
 92
      512
 93
        0
300

 40
0.0
140
1.0
 94
        5
 62
     0
340
55
144
6.0
309
CONTENTFORMAT_END
171
     1
301
MARGIN
  1
CELLMARGIN_BEGIN
 40
1.5
 40
1.5
 40
1.5
 40
1.5
 40
4.5
 40
4.5
309
CELLMARGIN_END
 94
        6
 95
        1
302
GRIDFORMAT
  1
GRIDFORMAT_BEGIN
 90
        0
 91
        1
 62
     0
 92
       -2
340
5B
 93
        0
 40
1.125
309
GRIDFORMAT_END
 95
        2
302
GRIDFORMAT
  1
GRIDFORMAT_BEGIN
 90
        0
 91
        1
 62
     0
 92
       -2
340
5B
 93
        0
 40
1.125
309
GRIDFORMAT_END
 95
        4
302
GRIDFORMAT
  1
GRIDFORMAT_BEGIN
 90
        0
 91
        1
 62
     0
 92
       -2
340
5B
 93
        0
 40
1.125
309
GRIDFORMAT_END
 95
        8
302
GRIDFORMAT
  1
GRIDFORMAT_BEGIN
 90
        0
 91
        1
 62
     0
 92
       -2
340
5B
 93
        0
 40
1.125
309
GRIDFORMAT_END
 95
       16
302
GRIDFORMAT
  1
GRIDFORMAT_BEGIN
 90
        0
 91
        1
 62
     0
 92
       -2
340
5B
 93
        0
 40
1.125
309
GRIDFORMAT_END
 95
       32
302
GRIDFORMAT
  1
GRIDFORMAT_BEGIN
 90
        0
 91
        1
 62
     0
 92
       -2
340
5B
 93
        0
 40
1.125
309
GRIDFORMAT_END
309
TABLEFORMAT_END
  1
CELLSTYLE_BEGIN
 90
        1
 91
        1
300
_TITLE
309
CELLSTYLE_END
300
CELLSTYLE
  1
TABLEFORMAT_BEGIN
 90
        5
170
     1
 91
        0
 92
        0
 62
   257
 93
        1
300
CONTENTFORMAT
  1
CONTENTFORMAT_BEGIN
 90
        0
 91
        0
 92
      512
 93
        0
300

 40
0.0
140
1.0
 94
        5
 62
     0
340
55
144
4.5
309
CONTENTFORMAT_END
171
     1
301
MARGIN
  1
CELLMARGIN_BEGIN
 40
1.5
 40
1.5
 40
1.5
 40
1.5
 40
4.5
 40
4.5
309
CELLMARGIN_END
 94
        6
 95
        1
302
GRIDFORMAT
  1
GRIDFORMAT_BEGIN
 90
        0
 91
        1
 62
     0
 92
       -2
340
5B
 93
        0
 40
1.125
309
GRIDFORMAT_END
 95
        2
302
GRIDFORMAT
  1
GRIDFORMAT_BEGIN
 90
        0
 91
        1
 62
     0
 92
       -2
340
5B
 93
        0
 40
1.125
309
GRIDFORMAT_END
 95
        4
302
GRIDFORMAT
  1
GRIDFORMAT_BEGIN
 90
        0
 91
        1
 62
     0
 92
       -2
340
5B
 93
        0
 40
1.125
309
GRIDFORMAT_END
 95
        8
302
GRIDFORMAT
  1
GRIDFORMAT_BEGIN
 90
        0
 91
        1
 62
     0
 92
       -2
340
5B
 93
        0
 40
1.125
309
GRIDFORMAT_END
 95
       16
302
GRIDFORMAT
  1
GRIDFORMAT_BEGIN
 90
        0
 91
        1
 62
     0
 92
       -2
340
5B
 93
        0
 40
1.125
309
GRIDFORMAT_END
 95
       32
302
GRIDFORMAT
  1
GRIDFORMAT_BEGIN
 90
        0
 91
        1
 62
     0
 92
       -2
340
5B
 93
        0
 40
1.125
309
GRIDFORMAT_END
309
TABLEFORMAT_END
  1
CELLSTYLE_BEGIN
 90
        2
 91
        1
300
_HEADER
309
CELLSTYLE_END
300
CELLSTYLE
  1
TABLEFORMAT_BEGIN
 90
        5
170
     1
 91
        0
 92
        0
 62
   257
 93
        1
300
CONTENTFORMAT
  1
CONTENTFORMAT_BEGIN
 90
        0
 91
        0
 92
      512
 93
        0
300

 40
0.0
140
1.0
 94
        2
 62
     0
340
55
144
4.5
309
CONTENTFORMAT_END
171
     1
301
MARGIN
  1
CELLMARGIN_BEGIN
 40
1.5
 40
1.5
 40
1.5
 40
1.5
 40
4.5
 40
4.5
309
CELLMARGIN_END
 94
        6
 95
        1
302
GRIDFORMAT
  1
GRIDFORMAT_BEGIN
 90
        0
 91
        1
 62
     0
 92
       -2
340
5B
 93
        0
 40
1.125
309
GRIDFORMAT_END
 95
        2
302
GRIDFORMAT
  1
GRIDFORMAT_BEGIN
 90
        0
 91
        1
 62
     0
 92
       -2
340
5B
 93
        0
 40
1.125
309
GRIDFORMAT_END
 95
        4
302
GRIDFORMAT
  1
GRIDFORMAT_BEGIN
 90
        0
 91
        1
 62
     0
 92
       -2
340
5B
 93
        0
 40
1.125
309
GRIDFORMAT_END
 95
        8
302
GRIDFORMAT
  1
GRIDFORMAT_BEGIN
 90
        0
 91
        1
 62
     0
 92
       -2
340
5B
 93
        0
 40
1.125
309
GRIDFORMAT_END
 95
       16
302
GRIDFORMAT
  1
GRIDFORMAT_BEGIN
 90
        0
 91
        1
 62
     0
 92
       -2
340
5B
 93
        0
 40
1.125
309
GRIDFORMAT_END
 95
       32
302
GRIDFORMAT
  1
GRIDFORMAT_BEGIN
 90
        0
 91
        1
 62
     0
 92
       -2
340
5B
 93
        0
 40
1.125
309
GRIDFORMAT_END
309
TABLEFORMAT_END
  1
CELLSTYLE_BEGIN
 90
        3
 91
        2
300
_DATA
309
CELLSTYLE_END
  0
ENDSEC
  0
SECTION
  2
ACDSDATA
 70
     2
 71
     8
  0
ACDSSCHEMA
 90
        0
  1
AcDb_Thumbnail_Schema
  2
AcDbDs::ID
280
    10
 91
        8
  2
Thumbnail_Data
280
    15
 91
        0
101
ACDSRECORD
 95
        0
 90
        1
  2
AcDbDs::TreatedAsObjectData
280
     1
291
     1
101
ACDSRECORD
 95
        0
 90
        2
  2
AcDbDs::Legacy
280
     1
291
     1
101
ACDSRECORD
  1
AcDbDs::ID
 90
        3
  2
AcDs:Indexable
280
     1
291
     1
101
ACDSRECORD
  1
AcDbDs::ID
 90
        4
  2
AcDbDs::HandleAttribute
280
     7
282
     1
  0
ACDSSCHEMA
 90
        1
  1
AcDbDs::TreatedAsObjectDataSchema
  2
AcDbDs::TreatedAsObjectData
280
     1
 91
        0
  0
ACDSSCHEMA
 90
        2
  1
AcDbDs::LegacySchema
  2
AcDbDs::Legacy
280
     1
 91
        0
  0
ACDSSCHEMA
 90
        3
  1
AcDbDs::IndexedPropertySchema
  2
AcDs:Indexable
280
     1
 91
        0
  0
ACDSSCHEMA
 90
        4
  1
AcDbDs::HandleAttributeSchema
  2
AcDbDs::HandleAttribute
280
     7
 91
        1
284
     1
  0
ACDSRECORD
 90
        0
  2
AcDbDs::ID
280
    10
320
73
  2
Thumbnail_Data
280
    15
 94
     1426
310
89504E470D0A1A0A0000000D4948445200000100000000800803000000D36B473800000300504C5445212830FFFFFF2128300000000000000000000000000000000000000000000000000000330000660000990000CC0000FF0033000033330033660033990033CC0033FF0066000066330066660066990066CC0066FF0099
310
000099330099660099990099CC0099FF00CC0000CC3300CC6600CC9900CCCC00CCFF00FF0000FF3300FF6600FF9900FFCC00FFFF3300003300333300663300993300CC3300FF3333003333333333663333993333CC3333FF3366003366333366663366993366CC3366FF3399003399333399663399993399CC3399FF33CC00
310
33CC3333CC6633CC9933CCCC33CCFF33FF0033FF3333FF6633FF9933FFCC33FFFF6600006600336600666600996600CC6600FF6633006633336633666633996633CC6633FF6666006666336666666666996666CC6666FF6699006699336699666699996699CC6699FF66CC0066CC3366CC6666CC9966CCCC66CCFF66FF0066
310
FF3366FF6666FF9966FFCC66FFFF9900009900339900669900999900CC9900FF9933009933339933669933999933CC9933FF9966009966339966669966999966CC9966FF9999009999339999669999999999CC9999FF99CC0099CC3399CC6699CC9999CCCC99CCFF99FF0099FF3399FF6699FF9999FFCC99FFFFCC0000CC00
310
33CC0066CC0099CC00CCCC00FFCC3300CC3333CC3366CC3399CC33CCCC33FFCC6600CC6633CC6666CC6699CC66CCCC66FFCC9900CC9933CC9966CC9999CC99CCCC99FFCCCC00CCCC33CCCC66CCCC99CCCCCCCCCCFFCCFF00CCFF33CCFF66CCFF99CCFFCCCCFFFFFF0000FF0033FF0066FF0099FF00CCFF00FFFF3300FF3333
310
FF3366FF3399FF33CCFF33FFFF6600FF6633FF6666FF6699FF66CCFF66FFFF9900FF9933FF9966FF9999FF99CCFF99FFFFCC00FFCC33FFCC66FFCC99FFCCCCFFCCFFFFFF00FFFF33FFFF66FFFF99FFFFCCFFFFFF0000000D0D0D1A1A1A2828283535354343435050505D5D5D6B6B6B787878868686939393A1A1A1AEAEAEBB
310
BBBBC9C9C9D6D6D6E4E4E4F1F1F1FFFFFF0000000000000000000000000000000000000000000000000000000000002E4550F10000024D4944415478DAEDDBD171C2300C80618FE317CFA36D3D81D7E97BD3D092A4B115101C88E8D7B53DB85E5DEB4372426252220882200882200822787CF9893701F87929000000000000
310
0000000000000000000000000000000000000000000000004EF16FDB2AA627B1015A40804DCAFDFCCF5E01C327004404C83936404E000000000000000000000000100860B912101AE012915B602E83D06B404B0000000000E707C89B68EB877E010657EC6D00230EDF0097A86A582A600D505B774C172D7029812AD30FD97E
310
2D8FAAAD1EFE0FB31BD30740FA0318E62F3600357FF106A0E56FAD002D7F271570BD6D5BB5FC1F6901754C4F005AFE4F6A81FD98AE2A603B3D79560BC87A4C09D802CE8F022F6D814F3A0A24097214B89E0A572DFF075A20393F0A2CA7C2C389DA01D4FC93B353E1ACE52FD61650F2F7B3061CBC8F99C306703CA62700E5F5
310
37B7C07859F1F466A85FAF7F532E73B4521E6C81E9BB6CA3156F00D29965B103FCFC513756875F3F00BBD90E2FEFDD0FA05C32745401EDD6EB9BA68BA20000000000007C0A40EF431E3680A60D39FFDA13803A5BD3EDA376149E006E98ACBD00C6BFF604F0FC35C0588B6F6A81503301000000000000000000000000000000
310
0000000000E0B5F17BCF34972800BBDBE3971D03F9EC1550EA727BBCB74FE4F400F31E1865EF5D0080835D52E707106DEF650AD10232CE3FC41AB024DED98116A105AE25D0DB8117A305D230FF502D20BD8F0EC56881EE5140E2B480B6033DCA1A30DC811D640D18EF403F3F80BE03FFDD2DA07E565CB2C874B22E9BF3F63B
310
437255F37F79057C0321766E8DB6DED83A0000000049454E44AE426082
  0
ENDSEC
  0
EOF
